<?xml version="1.0" standalone="no"?>
<!DOCTYPE svg PUBLIC "-//W3C//DTD SVG 1.1//EN" "http://www.w3.org/Graphics/SVG/1.1/DTD/svg11.dtd" >
<svg xmlns="http://www.w3.org/2000/svg" xmlns:xlink="http://www.w3.org/1999/xlink" version="1.1">
<metadata>
Created by FontForge 20201107 at Thu Jun 22 09:34:17 2023
 By 
Copyright 2022 The Noto Project Authors (https://github.com/notofonts/lao)
</metadata>
<defs>
<font id="NotoSansLao-Regular" horiz-adv-x="0" >
  <font-face 
    font-family="Noto Sans Lao"
    font-weight="400"
    font-stretch="normal"
    units-per-em="1000"
    panose-1="2 11 5 2 4 5 4 2 2 4"
    ascent="800"
    descent="-200"
    x-height="536"
    cap-height="714"
    bbox="-493 -438 960 1107"
    underline-thickness="50"
    underline-position="-125"
    unicode-range="U+000D-25CC"
  />
<missing-glyph horiz-adv-x="503" 
d="M51 0v714h400v-714h-400zM99 48h304v618h-304v-618z" />
    <glyph glyph-name=".notdef" horiz-adv-x="503" 
d="M51 0v714h400v-714h-400zM99 48h304v618h-304v-618z" />
    <glyph glyph-name=".null" 
 />
    <glyph glyph-name="nonmarkingreturn" horiz-adv-x="333" 
 />
    <glyph glyph-name="NULL" 
 />
    <glyph glyph-name="NULL" 
 />
    <glyph glyph-name="CR" unicode="&#xd;" horiz-adv-x="260" 
 />
    <glyph glyph-name="space" unicode=" " horiz-adv-x="260" 
 />
    <glyph glyph-name="exclam" unicode="!" horiz-adv-x="269" 
d="M163 201h-57l-25 513h107zM72 54q0 37 18 52t44 15q25 0 43.5 -15t18.5 -52q0 -36 -18.5 -52t-43.5 -16q-26 0 -44 16t-18 52z" />
    <glyph glyph-name="quotedbl" unicode="&#x22;" horiz-adv-x="408" 
d="M160 714l-20 -258h-55l-20 258h95zM343 714l-20 -258h-55l-20 258h95z" />
    <glyph glyph-name="numbersign" unicode="#" horiz-adv-x="646" 
d="M480 436l-31 -160h137v-67h-150l-41 -209h-71l41 209h-143l-39 -209h-70l38 209h-126v67h139l32 160h-134v66h146l40 212h72l-40 -212h144l40 212h69l-40 -212h127v-66h-140zM235 276h143l31 160h-143z" />
    <glyph glyph-name="dollar" unicode="$" horiz-adv-x="572" 
d="M253 49q-55 1 -107 9.5t-84 23.5v85q34 -16 87 -28t104 -13v202q-66 18 -108 41.5t-62.5 57.5t-20.5 81q0 49 23.5 84t66.5 55.5t101 23.5v88h64v-87q53 -1 96.5 -11.5t79.5 -25.5l-27 -74q-32 13 -70.5 22.5t-78.5 12.5v-201q66 -19 110 -40.5t66.5 -53t22.5 -81.5
q0 -70 -52 -113.5t-147 -53.5v-111h-64v107zM317 131q59 6 86 27.5t27 55.5q0 25 -10 41.5t-34.5 28.5t-68.5 23v-176zM253 594q-36 -2 -59 -12.5t-34.5 -27.5t-11.5 -39q0 -26 9.5 -44.5t32.5 -31t63 -22.5v177z" />
    <glyph glyph-name="percent" unicode="%" horiz-adv-x="831" 
d="M195 724q74 0 112 -58.5t38 -164.5t-36.5 -165.5t-113.5 -59.5q-71 0 -108.5 59.5t-37.5 165.5t35 164.5t111 58.5zM195 662q-38 0 -55.5 -40.5t-17.5 -120.5t17.5 -121t55.5 -41q39 0 58 40.5t19 121.5q0 80 -19 120.5t-58 40.5zM652 714l-396 -714h-77l396 714h77z
M632 438q73 0 111.5 -58.5t38.5 -164.5t-36.5 -165.5t-113.5 -59.5q-71 0 -108.5 59.5t-37.5 165.5t35 164.5t111 58.5zM632 375q-38 0 -55.5 -40t-17.5 -120q0 -81 17.5 -121.5t55.5 -40.5q39 0 58 40t19 122q0 80 -19 120t-58 40z" />
    <glyph glyph-name="ampersand" unicode="&#x26;" horiz-adv-x="732" 
d="M304 725q80 0 126.5 -40.5t46.5 -113.5q0 -63 -40.5 -107t-102.5 -80l193 -186q26 31 42.5 71.5t27.5 87.5h89q-16 -64 -40 -119t-62 -96l146 -142h-119l-87 84q-31 -28 -67 -49t-79.5 -33t-99.5 -12q-69 0 -119.5 22.5t-78 66.5t-27.5 107q0 51 18.5 88t53.5 66t82 56
q-21 24 -41 50t-33 56.5t-13 66.5q0 74 49.5 115t134.5 41zM260 341q-36 -21 -61.5 -42.5t-39.5 -47.5t-14 -62q0 -55 37 -88t99 -33q64 0 110 21t77 50zM301 653q-42 0 -68.5 -22t-26.5 -61q0 -36 19 -66.5t55 -67.5q59 34 84.5 64.5t25.5 70.5q0 36 -24 59t-65 23z" />
    <glyph glyph-name="quotesingle" unicode="'" horiz-adv-x="225" 
d="M160 714l-20 -258h-55l-20 258h95z" />
    <glyph glyph-name="parenleft" unicode="(" horiz-adv-x="300" 
d="M40 274q0 82 15.5 160t48.5 149t83 131h83q-70 -94 -105.5 -207t-35.5 -232q0 -77 16 -153t47 -146.5t77 -133.5h-82q-50 59 -83 128.5t-48.5 146.5t-15.5 157z" />
    <glyph glyph-name="parenright" unicode=")" horiz-adv-x="300" 
d="M260 274q0 -80 -15.5 -157t-48 -146.5t-83.5 -128.5h-82q46 63 77 133.5t47 146.5t16 153q0 79 -16 156t-47 149t-78 134h83q51 -60 83.5 -131t48 -149t15.5 -160z" />
    <glyph glyph-name="asterisk" unicode="*" horiz-adv-x="551" 
d="M322 760l-20 -192l192 54l14 -92l-184 -15l119 -158l-86 -47l-85 175l-77 -175l-89 47l117 158l-182 15l14 92l190 -54l-21 192h98z" />
    <glyph glyph-name="plus" unicode="+" horiz-adv-x="572" 
d="M321 388h199v-71h-199v-206h-72v206h-199v71h199v207h72v-207z" />
    <glyph glyph-name="comma" unicode="," horiz-adv-x="268" 
d="M192 105q-9 -35 -23 -76t-30.5 -81.5t-32.5 -76.5h-65q10 38 19.5 81.5t17.5 86t13 77.5h94z" />
    <glyph glyph-name="hyphen" unicode="-" horiz-adv-x="322" 
d="M40 229v78h242v-78h-242z" />
    <glyph glyph-name="period" unicode="." horiz-adv-x="268" 
d="M72 54q0 37 18 52t43 15q26 0 44.5 -15t18.5 -52q0 -36 -18.5 -52t-44.5 -16q-25 0 -43 16t-18 52z" />
    <glyph glyph-name="slash" unicode="/" horiz-adv-x="372" 
d="M362 714l-266 -714h-86l266 714h86z" />
    <glyph glyph-name="zero" unicode="0" horiz-adv-x="572" 
d="M523 358q0 -87 -13 -155t-41.5 -115.5t-74 -72.5t-109.5 -25q-80 0 -132.5 44t-78 126.5t-25.5 197.5q0 116 23.5 198t75.5 125.5t137 43.5q80 0 133 -43.5t79 -125.5t26 -198zM137 358q0 -98 14.5 -163t47 -97.5t86.5 -32.5t86.5 32t47.5 97.5t15 163.5t-15 162.5
t-47.5 97t-86.5 32.5t-86.5 -32.5t-47 -97t-14.5 -162.5z" />
    <glyph glyph-name="one" unicode="1" horiz-adv-x="572" 
d="M355 0h-86v499q0 29 0.5 49t1.5 37.5t2 36.5q-16 -16 -29 -27t-33 -28l-76 -62l-46 59l193 150h73v-714z" />
    <glyph glyph-name="two" unicode="2" horiz-adv-x="572" 
d="M520 0h-472v73l187 189q54 54 91 96t56 82.5t19 88.5q0 59 -35 89.5t-91 30.5q-52 0 -91.5 -18t-80.5 -50l-47 59q28 24 61.5 43t73 30t84.5 11q67 0 115 -23t74.5 -65.5t26.5 -101.5q0 -56 -23 -105t-64 -96.5t-96 -101.5l-149 -147v-4h361v-80z" />
    <glyph glyph-name="three" unicode="3" horiz-adv-x="572" 
d="M493 547q0 -48 -18 -83t-51.5 -57t-78.5 -31v-4q86 -10 128 -54t42 -115q0 -62 -29 -110.5t-89.5 -75.5t-155.5 -27q-56 0 -104 8.5t-92 30.5v82q45 -22 97 -34.5t100 -12.5q96 0 138.5 37.5t42.5 103.5q0 45 -23.5 72.5t-68.5 40.5t-108 13h-69v75h70q59 0 98.5 17
t60 47.5t20.5 70.5q0 52 -35 80.5t-95 28.5q-38 0 -69 -7.5t-57.5 -21t-53.5 -31.5l-44 60q38 30 94.5 52t128.5 22q112 0 166.5 -50t54.5 -127z" />
    <glyph glyph-name="four" unicode="4" horiz-adv-x="572" 
d="M552 162h-104v-162h-85v162h-342v75l336 481h91v-477h104v-79zM363 466q0 26 0.5 47.5t1.5 40.5t1.5 36.5t1.5 33.5h-4q-8 -19 -20 -41t-23 -37l-214 -305h256v225z" />
    <glyph glyph-name="five" unicode="5" horiz-adv-x="572" 
d="M275 438q73 0 127 -25t83.5 -71.5t29.5 -113.5q0 -74 -32 -127.5t-91.5 -82t-143.5 -28.5q-55 0 -103.5 10t-81.5 29v83q36 -22 87.5 -34.5t98.5 -12.5q53 0 92.5 16.5t61.5 51t22 86.5q0 70 -43 107.5t-136 37.5q-28 0 -64 -5t-58 -10l-44 28l27 337h358v-80h-283
l-17 -207q17 3 46 7t64 4z" />
    <glyph glyph-name="six" unicode="6" horiz-adv-x="572" 
d="M55 305q0 62 8.5 122t29.5 113.5t58 95t93.5 65t137.5 23.5q21 0 46.5 -2t41.5 -7v-75q-18 6 -40.5 9t-45.5 3q-69 0 -115 -23t-72.5 -63t-38.5 -92t-15 -111h6q15 24 38 43t55.5 30t75.5 11q62 0 108.5 -25.5t72.5 -74t26 -117.5q0 -74 -28 -128t-78.5 -83t-120.5 -29
q-51 0 -95 19t-77.5 58t-52 98.5t-18.5 139.5zM297 64q63 0 102 40.5t39 125.5q0 68 -34.5 108t-103.5 40q-47 0 -82 -19.5t-54.5 -49.5t-19.5 -62q0 -33 9.5 -65t29 -59t48 -43t66.5 -16z" />
    <glyph glyph-name="seven" unicode="7" horiz-adv-x="572" 
d="M136 0l293 634h-385v80h479v-68l-290 -646h-97z" />
    <glyph glyph-name="eight" unicode="8" horiz-adv-x="572" 
d="M285 724q94 0 154 -44t60 -127q0 -43 -18.5 -75t-49.5 -56.5t-68 -43.5q44 -21 80 -47.5t57.5 -61.5t21.5 -84q0 -60 -29 -103.5t-81.5 -67.5t-123.5 -24q-77 0 -130.5 23t-81 65.5t-27.5 103.5q0 49 20.5 85t54.5 62t73 44q-35 20 -63.5 45.5t-45 58.5t-16.5 77
q0 55 28 92.5t76 57.5t109 20zM135 181q0 -52 37 -86.5t114 -34.5q73 0 111.5 34.5t38.5 89.5q0 35 -18.5 61.5t-52 47.5t-79.5 38l-16 6q-44 -19 -74 -41t-45.5 -50t-15.5 -65zM284 653q-55 0 -90.5 -26.5t-35.5 -76.5q0 -37 17.5 -62t47.5 -42.5t66 -33.5q35 15 62.5 33
t44 43.5t16.5 61.5q0 50 -35 76.5t-93 26.5z" />
    <glyph glyph-name="nine" unicode="9" horiz-adv-x="572" 
d="M520 409q0 -77 -13.5 -151.5t-49 -135t-100 -96.5t-165.5 -36q-20 0 -46.5 2.5t-43.5 7.5v75q18 -6 42 -9.5t46 -3.5q70 0 115.5 23t72.5 62.5t39 92t14 110.5h-6q-15 -23 -38 -42t-55.5 -30t-76.5 -11q-61 0 -107.5 25.5t-72 73.5t-25.5 117q0 75 28.5 129t79.5 83
t120 29q51 0 95 -19.5t77 -58.5t51.5 -98t18.5 -139zM278 650q-62 0 -101.5 -41t-39.5 -125q0 -69 33.5 -108.5t103.5 -39.5q48 0 83 19.5t54.5 49.5t19.5 62t-9.5 64.5t-28.5 59.5t-48 43t-67 16z" />
    <glyph glyph-name="colon" unicode=":" horiz-adv-x="268" 
d="M72 54q0 37 18 52t43 15q26 0 44.5 -15t18.5 -52q0 -36 -18.5 -52t-44.5 -16q-25 0 -43 16t-18 52zM72 482q0 38 18 53t43 15q26 0 44.5 -15t18.5 -53q0 -36 -18.5 -52t-44.5 -16q-25 0 -43 16t-18 52z" />
    <glyph glyph-name="semicolon" unicode=";" horiz-adv-x="268" 
d="M183 105q-9 -35 -23 -76t-30.5 -81.5t-32.5 -76.5h-66q7 28 14.5 60t14.5 64.5t12.5 63.5t9.5 57h94zM70 482q0 38 18 53t43 15q26 0 44.5 -15t18.5 -53q0 -36 -18.5 -52t-44.5 -16q-25 0 -43 16t-18 52z" />
    <glyph glyph-name="less" unicode="&#x3c;" horiz-adv-x="572" 
d="M521 116l-471 207v50l471 235v-78l-377 -178l377 -158v-78z" />
    <glyph glyph-name="equal" unicode="=" horiz-adv-x="572" 
d="M56 416v71h458v-71h-458zM56 217v71h458v-71h-458z" />
    <glyph glyph-name="greater" unicode="&#x3e;" horiz-adv-x="572" 
d="M50 194l377 157l-377 179v78l471 -235v-50l-471 -207v78z" />
    <glyph glyph-name="question" unicode="?" horiz-adv-x="434" 
d="M140 228q0 38 7.5 65.5t26 52.5t50.5 52q39 33 60.5 55t30.5 43t9 51q0 48 -31 74t-90 26q-49 0 -87 -12.5t-73 -29.5l-31 70q40 21 88.5 35t108.5 14q95 0 147 -47t52 -128q0 -45 -14.5 -76.5t-41 -58t-62.5 -56.5q-33 -28 -50.5 -49t-23.5 -41.5t-6 -49.5v-17h-70v27z
M117 54q0 37 17.5 52t44.5 15q25 0 43 -15t18 -52q0 -36 -18 -52t-43 -16q-27 0 -44.5 16t-17.5 52z" />
    <glyph glyph-name="at" unicode="@" horiz-adv-x="899" 
d="M841 357q0 -46 -10.5 -90t-32.5 -79.5t-54 -57t-76 -21.5q-46 0 -72.5 26.5t-32.5 60.5h-5q-18 -37 -53 -62t-88 -25q-76 0 -117.5 51t-41.5 135q0 66 26 116.5t73.5 79.5t112.5 29q44 0 86.5 -7.5t66.5 -16.5l-10 -203q-1 -18 -1 -25.5v-10.5q0 -52 18.5 -69t43.5 -17
q31 0 52.5 25.5t33 68t11.5 93.5q0 93 -37.5 157.5t-103 98.5t-148.5 34q-85 0 -151 -27t-110.5 -76t-67.5 -115.5t-23 -146.5q0 -98 35 -166.5t102.5 -104t165.5 -35.5q61 0 116.5 13.5t98.5 29.5v-68q-43 -18 -96.5 -29.5t-118.5 -11.5q-118 0 -202 44t-128.5 126.5
t-44.5 198.5q0 93 29 172.5t84 138t133.5 91t177.5 32.5q78 0 143.5 -24.5t114 -71t75 -112.5t26.5 -149zM336 293q0 -64 25.5 -93t68.5 -29q56 0 80.5 42t28.5 109l6 125q-13 4 -33 7t-41 3q-49 0 -79 -24t-43 -61.5t-13 -78.5z" />
    <glyph glyph-name="A" unicode="A" horiz-adv-x="639" 
d="M545 0l-86 221h-283l-85 -221h-91l279 717h81l278 -717h-93zM352 517q-3 8 -10 29t-13.5 43.5t-10.5 34.5q-5 -20 -10.5 -40.5t-11 -37.5t-9.5 -29l-81 -216h226z" />
    <glyph glyph-name="B" unicode="B" horiz-adv-x="650" 
d="M301 714q134 0 202.5 -39.5t68.5 -137.5q0 -42 -15.5 -74.5t-46 -54t-74.5 -29.5v-5q45 -7 81.5 -26t57.5 -54t21 -91q0 -65 -30 -110.5t-85.5 -69t-132.5 -23.5h-251v714h204zM319 410q92 0 126 29.5t34 87.5q0 59 -41.5 84.5t-132.5 25.5h-118v-227h132zM187 335v-259
h144q95 0 132 37t37 97q0 38 -16.5 66t-55 43.5t-104.5 15.5h-137z" />
    <glyph glyph-name="C" unicode="C" horiz-adv-x="632" 
d="M403 645q-57 0 -103 -19.5t-78 -57t-49 -91t-17 -120.5q0 -88 27.5 -153t82 -100t136.5 -35q47 0 89 8t82 20v-78q-40 -15 -82.5 -22t-101.5 -7q-109 0 -182 45t-109.5 128t-36.5 195q0 81 22.5 148t66 116t107.5 75.5t147 26.5q55 0 106 -11t91 -31l-36 -76
q-33 15 -73.5 27t-88.5 12z" />
    <glyph glyph-name="D" unicode="D" horiz-adv-x="730" 
d="M669 364q0 -120 -44.5 -201t-127.5 -122t-201 -41h-199v714h220q108 0 187 -40t122 -117.5t43 -192.5zM574 361q0 95 -31.5 156t-92 90.5t-146.5 29.5h-117v-560h97q145 0 217.5 71.5t72.5 212.5z" />
    <glyph glyph-name="E" unicode="E" horiz-adv-x="556" 
d="M496 0h-399v714h399v-79h-309v-223h291v-78h-291v-255h309v-79z" />
    <glyph glyph-name="F" unicode="F" horiz-adv-x="519" 
d="M187 0h-90v714h399v-79h-309v-253h290v-79h-290v-303z" />
    <glyph glyph-name="G" unicode="G" horiz-adv-x="728" 
d="M407 377h247v-350q-58 -19 -117 -28t-134 -9q-111 0 -187 44.5t-115.5 127t-39.5 195.5q0 112 44 194t126.5 127.5t199.5 45.5q60 0 113.5 -11t99.5 -31l-34 -78q-38 17 -85.5 29t-98.5 12q-85 0 -146 -35t-93 -99.5t-32 -153.5q0 -85 27.5 -150.5t86.5 -102t155 -36.5
q47 0 80 5t60 12v212h-157v80z" />
    <glyph glyph-name="H" unicode="H" horiz-adv-x="741" 
d="M643 0h-90v333h-366v-333h-90v714h90v-302h366v302h90v-714z" />
    <glyph glyph-name="I" unicode="I" horiz-adv-x="339" 
d="M298 0h-258v52l84 19v571l-84 20v52h258v-52l-84 -20v-571l84 -19v-52z" />
    <glyph glyph-name="J" unicode="J" horiz-adv-x="273" 
d="M-4 -190q-24 0 -42 3.5t-32 9.5v76q16 -4 34 -7t38 -3q25 0 47.5 10t36.5 35t14 70v710h90v-703q0 -69 -23 -113.5t-65 -66t-98 -21.5z" />
    <glyph glyph-name="K" unicode="K" horiz-adv-x="619" 
d="M619 0h-106l-253 341l-73 -64v-277h-90v714h90v-352q30 34 61 68l62 68l193 216h105l-283 -311z" />
    <glyph glyph-name="L" unicode="L" horiz-adv-x="524" 
d="M97 0v714h90v-634h312v-80h-402z" />
    <glyph glyph-name="M" unicode="M" horiz-adv-x="907" 
d="M412 0l-235 626h-4q2 -20 3.5 -51t2.5 -67.5t1 -74.5v-433h-83v714h133l220 -585h4l224 585h132v-714h-89v439q0 35 1 69.5t3 65t3 51.5h-4l-238 -625h-74z" />
    <glyph glyph-name="N" unicode="N" horiz-adv-x="760" 
d="M663 0h-105l-382 593h-4q2 -23 3.5 -54.5t3 -67t1.5 -72.5v-399h-83v714h104l381 -591h4q-1 16 -2.5 48t-3 70t-1.5 70v403h84v-714z" />
    <glyph glyph-name="O" unicode="O" horiz-adv-x="781" 
d="M720 358q0 -83 -21 -150.5t-62.5 -116.5t-103 -75t-142.5 -26q-84 0 -146 26.5t-103 75t-61 116.5t-20 151q0 110 36 192t109.5 128t185.5 46q107 0 180 -45.5t110.5 -128t37.5 -193.5zM156 358q0 -90 25 -155t77.5 -100t132.5 -35q81 0 132.5 35t76.5 100t25 155
q0 135 -56 211.5t-177 76.5q-81 0 -133.5 -34.5t-77.5 -99t-25 -154.5z" />
    <glyph glyph-name="P" unicode="P" horiz-adv-x="605" 
d="M286 714q140 0 204 -55t64 -155q0 -44 -14.5 -84.5t-47.5 -72.5t-88 -50.5t-135 -18.5h-82v-278h-90v714h189zM278 637h-91v-282h72q68 0 113 14.5t67 46.5t22 84q0 69 -44 103t-139 34z" />
    <glyph glyph-name="Q" unicode="Q" horiz-adv-x="781" 
d="M720 358q0 -87 -23.5 -158t-69.5 -120t-115 -72l171 -178h-129l-138 161q-6 0 -12.5 -0.5t-12.5 -0.5q-84 0 -146 26.5t-103 75t-61 116.5t-20 151q0 110 36 192t109.5 128t185.5 46q107 0 180 -45.5t110.5 -128t37.5 -193.5zM156 358q0 -90 25 -155t77.5 -100t132.5 -35
q81 0 132.5 35t76.5 100t25 155q0 135 -56 211.5t-177 76.5q-81 0 -133.5 -34.5t-77.5 -99t-25 -154.5z" />
    <glyph glyph-name="R" unicode="R" horiz-adv-x="622" 
d="M294 714q89 0 146.5 -22.5t85.5 -67.5t28 -113q0 -57 -21 -95t-53.5 -60.5t-68.5 -35.5l196 -320h-105l-173 295h-142v-295h-90v714h197zM289 636h-102v-265h107q87 0 127 34.5t40 101.5q0 47 -18.5 75t-56.5 41t-97 13z" />
    <glyph glyph-name="S" unicode="S" horiz-adv-x="549" 
d="M502 191q0 -64 -31 -108.5t-88.5 -68.5t-135.5 -24q-40 0 -76.5 4t-66.5 11.5t-53 18.5v86q36 -16 89.5 -29t110.5 -13q53 0 89 14t54 40t18 61t-15 59t-51.5 44.5t-101.5 43.5q-61 22 -102 50t-61.5 67.5t-20.5 94.5q0 57 29 97.5t80.5 62.5t118.5 22q59 0 108 -11
t89 -29l-28 -77q-37 16 -80.5 27t-90.5 11q-45 0 -75 -13t-45 -36.5t-15 -54.5q0 -36 15 -60t49 -43t92 -41q63 -23 106.5 -49.5t66 -63.5t22.5 -93z" />
    <glyph glyph-name="T" unicode="T" horiz-adv-x="556" 
d="M323 0h-90v635h-223v79h535v-79h-222v-635z" />
    <glyph glyph-name="U" unicode="U" horiz-adv-x="731" 
d="M640 252q0 -74 -30 -133.5t-91.5 -94t-156.5 -34.5q-133 0 -202.5 72.5t-69.5 191.5v460h90v-463q0 -87 46.5 -135t140.5 -48q65 0 105.5 23.5t59.5 65t19 95.5v462h89v-462z" />
    <glyph glyph-name="V" unicode="V" horiz-adv-x="600" 
d="M600 714l-255 -714h-90l-255 714h94l161 -458q11 -29 19 -56t14.5 -51.5t11.5 -48.5q5 24 11.5 49t15 52t18.5 57l160 456h95z" />
    <glyph glyph-name="W" unicode="W" horiz-adv-x="930" 
d="M917 714l-190 -714h-91l-139 468q-6 21 -12 43t-11 42t-8.5 34.5t-4.5 21.5q-1 -7 -3.5 -21.5t-7.5 -34.5t-10.5 -42.5t-12.5 -45.5l-135 -465h-91l-189 714h94l111 -436q6 -23 11 -45.5t9.5 -44t7.5 -41.5t6 -39q3 20 6.5 41t8.5 43.5t11 45.5t12 45l126 431h93
l131 -434q7 -23 13 -46.5t11 -45.5t8.5 -42.5t6.5 -37.5q3 25 8 52.5t12 57.5t15 61l110 435h94z" />
    <glyph glyph-name="X" unicode="X" horiz-adv-x="586" 
d="M582 0h-102l-189 310l-192 -310h-95l237 372l-222 342h100l175 -280l176 280h95l-221 -340z" />
    <glyph glyph-name="Y" unicode="Y" horiz-adv-x="566" 
d="M283 363l186 351h97l-238 -437v-277h-90v273l-238 441h98z" />
    <glyph glyph-name="Z" unicode="Z" horiz-adv-x="572" 
d="M533 0h-495v68l376 566h-364v80h473v-68l-376 -566h386v-80z" />
    <glyph glyph-name="bracketleft" unicode="[" horiz-adv-x="329" 
d="M304 -158h-224v872h224v-72h-138v-728h138v-72z" />
    <glyph glyph-name="backslash" unicode="\" horiz-adv-x="372" 
d="M96 714l267 -714h-87l-266 714h86z" />
    <glyph glyph-name="bracketright" unicode="]" horiz-adv-x="329" 
d="M25 -86h138v728h-138v72h224v-872h-224v72z" />
    <glyph glyph-name="asciicircum" unicode="^" horiz-adv-x="572" 
d="M38 267l212 452h50l234 -452h-78l-180 359l-160 -359h-78z" />
    <glyph glyph-name="underscore" unicode="_" horiz-adv-x="444" 
d="M446 -154h-448v64h448v-64z" />
    <glyph glyph-name="grave" unicode="`" horiz-adv-x="281" 
d="M145 766q11 -22 27.5 -49.5t35 -53.5t33.5 -45v-12h-59q-17 14 -38 33.5t-41.5 41t-37 41.5t-25.5 34v10h105z" />
    <glyph glyph-name="a" unicode="a" horiz-adv-x="561" 
d="M288 545q98 0 145 -43t47 -137v-365h-64l-17 76h-4q-23 -29 -47.5 -48.5t-56 -28.5t-76.5 -9q-48 0 -86.5 17t-60.5 52.5t-22 89.5q0 80 63 123.5t194 47.5l91 3v32q0 67 -29 93t-82 26q-42 0 -80 -12.5t-71 -28.5l-27 66q35 19 83 32.5t100 13.5zM314 259
q-100 -4 -138.5 -32t-38.5 -79q0 -45 27.5 -66t70.5 -21q68 0 113 37.5t45 115.5v48z" />
    <glyph glyph-name="b" unicode="b" horiz-adv-x="615" 
d="M173 575q0 -34 -1.5 -63.5t-3.5 -46.5h5q23 34 63 57t103 23q100 0 160.5 -69.5t60.5 -207.5q0 -92 -27.5 -154t-77.5 -93t-116 -31q-63 0 -103 23t-63 55h-7l-18 -68h-63v760h88v-185zM324 472q-57 0 -90 -21.5t-47 -66t-14 -113.5v-4q0 -99 32.5 -151.5t120.5 -52.5
q72 0 107.5 53t35.5 153q0 101 -35.5 152t-109.5 51z" />
    <glyph glyph-name="c" unicode="c" horiz-adv-x="480" 
d="M300 -10q-71 0 -126.5 29t-87 90t-31.5 156q0 99 33 161t89.5 91t128.5 29q41 0 79 -8.5t62 -20.5l-27 -73q-24 9 -56 17t-60 8q-54 0 -89 -23t-52 -68t-17 -112q0 -64 17 -109t51 -68t85 -23q44 0 77.5 9t61.5 22v-78q-27 -14 -59.5 -21.5t-78.5 -7.5z" />
    <glyph glyph-name="d" unicode="d" horiz-adv-x="615" 
d="M275 -10q-100 0 -160 69.5t-60 207.5t60.5 208.5t160.5 70.5q42 0 73 -10.5t54 -28.5t39 -40h6q-1 13 -3.5 38.5t-2.5 40.5v214h88v-760h-71l-13 72h-4q-16 -23 -39 -41.5t-54.5 -29.5t-73.5 -11zM289 63q85 0 119.5 46.5t34.5 140.5v16q0 100 -33 153.5t-122 53.5
q-71 0 -106.5 -56.5t-35.5 -151.5q0 -96 35.5 -149t107.5 -53z" />
    <glyph glyph-name="e" unicode="e" horiz-adv-x="564" 
d="M292 546q69 0 118.5 -30t76 -84.5t26.5 -127.5v-53h-367q2 -91 46.5 -138.5t124.5 -47.5q51 0 90.5 9.5t81.5 27.5v-77q-41 -18 -81 -26.5t-95 -8.5q-76 0 -134.5 31t-91 92.5t-32.5 150.5q0 88 29.5 151t83 97t124.5 34zM291 474q-63 0 -99.5 -40.5t-43.5 -112.5h273
q0 46 -14 80t-42.5 53.5t-73.5 19.5z" />
    <glyph glyph-name="f" unicode="f" horiz-adv-x="344" 
d="M332 468h-135v-468h-88v468h-94v41l94 30v31q0 104 46 149.5t128 45.5q32 0 58.5 -5.5t45.5 -12.5l-23 -69q-16 5 -37 10t-43 5q-44 0 -65.5 -29.5t-21.5 -92.5v-35h135v-68z" />
    <glyph glyph-name="g" unicode="g" horiz-adv-x="615" 
d="M275 546q53 0 95.5 -20t72.5 -61h5l12 71h70v-545q0 -76 -26 -127.5t-79 -77.5t-135 -26q-58 0 -106.5 8.5t-86.5 25.5v81q38 -20 89 -31t109 -11q69 0 108.5 40.5t39.5 110.5v21q0 12 1 34.5t2 31.5h-4q-28 -41 -69.5 -61t-96.5 -20q-104 0 -162.5 73t-58.5 204
q0 128 58.5 203.5t161.5 75.5zM287 472q-45 0 -76.5 -24t-48 -70t-16.5 -112q0 -99 36.5 -151.5t106.5 -52.5q41 0 70 10.5t48 33t28 57.5t9 83v21q0 73 -16.5 118t-51.5 66t-89 21z" />
    <glyph glyph-name="h" unicode="h" horiz-adv-x="618" 
d="M173 537q0 -19 -1.5 -39t-3.5 -36h6q17 28 43 46t58 27.5t66 9.5q65 0 108.5 -20.5t65.5 -63.5t22 -112v-349h-87v343q0 65 -29 97t-91 32q-60 0 -94 -22.5t-48.5 -66t-14.5 -106.5v-277h-88v760h88v-223z" />
    <glyph glyph-name="i" unicode="i" horiz-adv-x="258" 
d="M173 536v-536h-88v536h88zM130 737q20 0 35.5 -13.5t15.5 -42.5q0 -28 -15.5 -42t-35.5 -14q-22 0 -37 14t-15 42q0 29 15 42.5t37 13.5z" />
    <glyph glyph-name="j" unicode="j" horiz-adv-x="258" 
d="M22 -240q-25 0 -44 3.5t-33 8.5v71q15 -4 31 -7t35 -3q32 0 53 17.5t21 66.5v619h88v-616q0 -50 -16 -86t-49 -55t-86 -19zM78 681q0 29 15 42.5t37 13.5q20 0 35.5 -13.5t15.5 -42.5q0 -28 -15.5 -42t-35.5 -14q-22 0 -37 14t-15 42z" />
    <glyph glyph-name="k" unicode="k" horiz-adv-x="534" 
d="M172 363q0 -16 -1.5 -42t-2.5 -45h4q6 8 18 23t24.5 30.5t21.5 25.5l171 181h103l-217 -229l232 -307h-106l-186 250l-61 -53v-197h-87v760h87v-397z" />
    <glyph glyph-name="l" unicode="l" horiz-adv-x="258" 
d="M173 0h-88v760h88v-760z" />
    <glyph glyph-name="m" unicode="m" horiz-adv-x="935" 
d="M673 546q91 0 136 -46.5t45 -150.5v-349h-87v345q0 63 -26.5 95t-82.5 32q-78 0 -111.5 -45t-33.5 -131v-296h-87v345q0 42 -12 70.5t-36 42.5t-62 14q-54 0 -85 -22.5t-44.5 -65.5t-13.5 -106v-278h-88v536h71l13 -73h5q17 28 41.5 46.5t54.5 27.5t62 9q62 0 103.5 -22
t60.5 -68h5q27 46 73.5 68t98.5 22z" />
    <glyph glyph-name="n" unicode="n" horiz-adv-x="618" 
d="M343 546q96 0 145 -46.5t49 -150.5v-349h-87v343q0 65 -29 97t-91 32q-89 0 -123 -50t-34 -144v-278h-88v536h71l13 -73h5q18 28 44.5 46.5t58.5 27.5t66 9z" />
    <glyph glyph-name="o" unicode="o" horiz-adv-x="605" 
d="M551 269q0 -67 -17.5 -118.5t-50 -87.5t-79 -54.5t-103.5 -18.5q-53 0 -98 18.5t-78 54.5t-51.5 87.5t-18.5 118.5q0 89 30 150.5t86 94t133 32.5q73 0 128.5 -32.5t87 -94t31.5 -150.5zM146 269q0 -63 16.5 -109.5t51.5 -71.5t89 -25t89 25t51.5 71.5t16.5 109.5
q0 64 -17 109t-51.5 69.5t-89.5 24.5q-82 0 -119 -54t-37 -149z" />
    <glyph glyph-name="p" unicode="p" horiz-adv-x="615" 
d="M340 546q99 0 159.5 -69t60.5 -208q0 -91 -27.5 -153.5t-77 -94t-116.5 -31.5q-41 0 -73 11t-54.5 28.5t-38.5 38.5h-6q2 -17 4 -43t2 -45v-220h-88v776h72l12 -73h4q16 23 38.5 42t54 30t74.5 11zM324 472q-54 0 -87 -20.5t-48 -61.5t-16 -104v-17q0 -66 14 -112
t47.5 -70t91.5 -24q49 0 80.5 27t47 73.5t15.5 106.5q0 92 -35.5 147t-109.5 55z" />
    <glyph glyph-name="q" unicode="q" horiz-adv-x="615" 
d="M442 -11q0 18 1 42t4 41h-6q-23 -34 -63.5 -58t-104.5 -24q-97 0 -157.5 69.5t-60.5 207.5q0 92 28 154t78 93.5t115 31.5q63 0 103 -24t64 -59h4l13 73h70v-776h-88v229zM290 63q55 0 88.5 20t48.5 61.5t16 103.5v18q0 102 -34 154.5t-121 52.5q-72 0 -107 -56.5
t-35 -151.5t35.5 -148.5t108.5 -53.5z" />
    <glyph glyph-name="r" unicode="r" horiz-adv-x="413" 
d="M335 546q15 0 32.5 -1.5t30.5 -4.5l-11 -81q-13 3 -28.5 5t-29.5 2q-31 0 -59 -13t-50 -36.5t-34.5 -56.5t-12.5 -74v-286h-88v536h72l10 -98h4q17 30 41 54.5t55 39t68 14.5z" />
    <glyph glyph-name="s" unicode="s" horiz-adv-x="479" 
d="M434 148q0 -52 -26 -87t-74 -53t-114 -18q-56 0 -96.5 9t-71.5 25v80q32 -16 77.5 -29.5t92.5 -13.5q67 0 97 21.5t30 57.5q0 20 -11 36t-39.5 32t-81.5 36q-52 20 -89 40t-57 48t-20 72q0 68 55.5 105t145.5 37q49 0 91.5 -9.5t79.5 -26.5l-30 -70q-34 14 -71 24t-76 10
q-54 0 -82.5 -17.5t-28.5 -47.5q0 -22 13 -37.5t43.5 -30t81.5 -34.5q51 -19 87 -39t55 -48.5t19 -71.5z" />
    <glyph glyph-name="t" unicode="t" horiz-adv-x="361" 
d="M264 62q20 0 41 3.5t34 7.5v-67q-14 -7 -40 -11.5t-50 -4.5q-42 0 -77.5 14.5t-57.5 50.5t-22 101v312h-76v42l77 35l35 114h52v-123h155v-68h-155v-310q0 -49 23.5 -72.5t60.5 -23.5z" />
    <glyph glyph-name="u" unicode="u" horiz-adv-x="618" 
d="M533 536v-536h-72l-13 71h-4q-17 -28 -44 -46t-59 -26.5t-67 -8.5q-64 0 -107.5 20.5t-65.5 63.5t-22 111v351h89v-345q0 -64 29 -96t90 -32q60 0 94.5 22.5t49 66t14.5 105.5v279h88z" />
    <glyph glyph-name="v" unicode="v" horiz-adv-x="508" 
d="M203 0l-203 536h94l114 -316q8 -22 17 -49t16 -51.5t10 -41.5h4q4 17 11.5 42t17 52t16.5 48l114 316h94l-204 -536h-101z" />
    <glyph glyph-name="w" unicode="w" horiz-adv-x="786" 
d="M431 303q-8 28 -15.5 54.5t-13 49.5t-8.5 38h-4q-2 -15 -7.5 -38t-12.5 -50t-16 -55l-96 -301h-100l-147 536h91l74 -286q8 -29 15 -58.5t12.5 -56t7.5 -45.5h4q3 12 7 30t8.5 38t10 40t10.5 36l95 302h96l92 -302q7 -23 14.5 -49t13.5 -50.5t8 -43.5h4q2 17 7.5 42.5
t13 56t15.5 60.5l75 286h90l-149 -536h-103z" />
    <glyph glyph-name="x" unicode="x" horiz-adv-x="529" 
d="M212 274l-185 262h100l138 -202l137 202h99l-185 -262l195 -274h-100l-146 214l-148 -214h-99z" />
    <glyph glyph-name="y" unicode="y" horiz-adv-x="510" 
d="M1 536h94l116 -305q10 -27 18.5 -52t15.5 -48.5t11 -45.5h4q6 25 19 65.5t27 81.5l109 304h95l-231 -610q-19 -50 -44.5 -87.5t-62 -58t-88.5 -20.5q-24 0 -42 2.5t-31 5.5v70q11 -2 26.5 -4t32.5 -2q31 0 53.5 11.5t38.5 33t27 50.5l28 71z" />
    <glyph glyph-name="z" unicode="z" horiz-adv-x="470" 
d="M431 0h-392v58l288 410h-271v68h368v-66l-284 -402h291v-68z" />
    <glyph glyph-name="braceleft" unicode="{" horiz-adv-x="380" 
d="M348 -158q-61 1 -105.5 18t-68.5 52.5t-24 88.5v147q0 34 -14 54.5t-41 30t-67 9.5v73q40 1 67 10t41 29.5t14 53.5v148q0 53 25 88t70 52.5t103 17.5v-72q-34 -1 -59 -11t-38.5 -30t-13.5 -53v-144q0 -51 -27 -81.5t-82 -40.5v-6q56 -10 82.5 -40.5t26.5 -81.5v-147
q0 -32 13 -52.5t38 -30t60 -10.5v-72z" />
    <glyph glyph-name="bar" unicode="|" horiz-adv-x="551" 
d="M239 760h73v-1001h-73v1001z" />
    <glyph glyph-name="braceright" unicode="}" horiz-adv-x="380" 
d="M32 -86q35 1 59.5 11t38 30.5t13.5 52.5v145q0 51 27 81.5t82 40.5v6q-55 10 -82 40.5t-27 81.5v146q0 33 -13 53t-37.5 30t-60.5 10v72q62 0 106 -17.5t68 -52.5t24 -89v-146q0 -34 14 -54.5t41.5 -30t66.5 -9.5v-73q-39 0 -66.5 -9.5t-41.5 -29.5t-14 -54v-149
q0 -53 -25 -88t-69.5 -52.5t-103.5 -17.5v72z" />
    <glyph glyph-name="asciitilde" unicode="~" horiz-adv-x="572" 
d="M269 319q-36 16 -59.5 21.5t-45.5 5.5q-28 0 -59 -17t-55 -42v78q24 26 54 39.5t66 13.5q29 0 57.5 -6t74.5 -26q36 -16 59.5 -21.5t44.5 -5.5q29 0 60 17t55 42v-77q-24 -26 -54 -40t-66 -14q-28 0 -57.5 6.5t-74.5 25.5z" />
    <glyph glyph-name="uni00A0" unicode="&#xa0;" horiz-adv-x="260" 
 />
    <glyph glyph-name="exclamdown" unicode="&#xa1;" horiz-adv-x="269" 
d="M104 330h58l25 -512h-108zM196 478q0 -37 -18 -52t-44 -15q-25 0 -43.5 15t-18.5 52q0 36 18.5 52t43.5 16q26 0 44 -16t18 -52z" />
    <glyph glyph-name="cent" unicode="&#xa2;" horiz-adv-x="572" 
d="M353 644q38 -1 72.5 -9.5t59.5 -19.5l-26 -73q-26 10 -59 18t-60 8q-54 0 -89.5 -22.5t-52.5 -68t-17 -114.5t17.5 -113t52 -65t85.5 -21q44 0 76.5 8.5t63.5 21.5v-77q-27 -13 -56 -20.5t-68 -9.5v-97h-67v100q-59 9 -102.5 39t-67.5 87t-24 146q0 91 24 149t68 89
t102 40v84h68v-80z" />
    <glyph glyph-name="sterling" unicode="&#xa3;" horiz-adv-x="572" 
d="M334 723q55 0 99 -12t78 -29l-31 -70q-30 14 -66.5 26t-77.5 12q-57 0 -87 -29.5t-30 -95.5v-139h204v-66h-204v-104q0 -40 -9.5 -66.5t-25 -42.5t-33.5 -27h384v-80h-503v74q29 7 51 23.5t35 45t13 72.5v105h-96v66h96v148q0 60 25 102t71 64.5t107 22.5z" />
    <glyph glyph-name="yen" unicode="&#xa5;" horiz-adv-x="572" 
d="M285 365l179 349h92l-201 -375h124v-64h-151v-82h151v-64h-151v-129h-86v129h-151v64h151v82h-151v64h122l-199 375h93z" />
    <glyph glyph-name="section" unicode="&#xa7;" horiz-adv-x="513" 
d="M67 395q0 50 24 80.5t55 45.5q-36 20 -56 47.5t-20 67.5q0 60 51 94.5t146 34.5q56 0 95 -9.5t76 -24.5l-27 -67q-34 14 -68 23.5t-82 9.5q-60 0 -84.5 -15.5t-24.5 -43.5q0 -18 12 -32.5t40.5 -29t79.5 -33.5q52 -19 88 -41t55.5 -50.5t19.5 -68.5q0 -51 -23 -83.5
t-52 -49.5q35 -19 54.5 -45.5t19.5 -64.5q0 -69 -57.5 -107t-160.5 -38q-55 0 -96 8.5t-73 24.5v75q22 -10 50 -19.5t60 -15.5t63 -6q74 0 102 21.5t28 49.5q0 19 -9.5 33t-37 29.5t-82.5 35.5q-52 20 -89.5 41t-57 50t-19.5 73zM142 405q0 -24 13.5 -43.5t45 -37
t84.5 -37.5l22 -8q23 14 43.5 35.5t20.5 55.5q0 25 -13.5 45t-47.5 38.5t-96 37.5q-28 -7 -50 -30t-22 -56z" />
    <glyph glyph-name="dieresis" unicode="&#xa8;" horiz-adv-x="580" 
d="M149 681q0 26 14 37.5t33 11.5t33 -11.5t14 -37.5q0 -25 -14 -37.5t-33 -12.5t-33 12.5t-14 37.5zM337 681q0 26 13.5 37.5t32.5 11.5t33 -11.5t14 -37.5q0 -25 -14 -37.5t-33 -12.5t-32.5 12.5t-13.5 37.5z" />
    <glyph glyph-name="copyright" unicode="&#xa9;" horiz-adv-x="832" 
d="M431 133q-99 0 -148 61.5t-49 162.5q0 65 23 115.5t68 79t110 28.5q31 0 63 -8t60 -22l-29 -61q-25 13 -48.5 19.5t-44.5 6.5q-59 0 -91.5 -42t-32.5 -116q0 -76 28.5 -117.5t94.5 -41.5q23 0 51.5 6.5t53.5 16.5v-64q-24 -10 -49 -17t-60 -7zM416 -10q-80 0 -147 27
t-116.5 76.5t-76.5 116.5t-27 147t27 147t76.5 116.5t116.5 76.5t147 27q76 0 142.5 -27t117 -76.5t79 -116.5t28.5 -147t-27 -147t-76.5 -116.5t-116.5 -76.5t-147 -27zM416 43q64 0 120 23t99 65.5t67 99.5t24 126q0 65 -23 122t-64.5 100t-98 67.5t-124.5 24.5t-125 -23
t-98.5 -65.5t-64.5 -99.5t-23 -126q0 -65 23 -122t64.5 -100t98.5 -67.5t125 -24.5z" />
    <glyph glyph-name="ordfeminine" unicode="&#xaa;" horiz-adv-x="357" 
d="M177 722q65 0 98 -27t33 -86v-220h-47l-12 42q-20 -21 -48 -34.5t-66 -13.5q-31 0 -54.5 11t-36 33t-12.5 55q0 34 17 56.5t52.5 34.5t88.5 14l56 2v22q0 33 -21 46t-50 13q-28 0 -53 -7.5t-48 -18.5l-22 49q26 13 58.5 21t66.5 8zM198 542q-60 -2 -81 -17.5t-21 -42.5
q0 -25 14.5 -36.5t39.5 -11.5q51 0 73.5 23.5t22.5 63.5v23z" />
    <glyph glyph-name="guillemotleft" unicode="&#xab;" horiz-adv-x="509" 
d="M40 270l168 201l63 -36l-140 -171l140 -171l-63 -37l-168 201v13zM238 270l170 201l62 -36l-140 -171l140 -171l-62 -37l-170 201v13z" />
    <glyph glyph-name="registered" unicode="&#xae;" horiz-adv-x="832" 
d="M279 138v437h128q82 0 120 -32t38 -97q0 -47 -24 -74.5t-54 -39.5l116 -194h-86l-100 173h-62v-173h-76zM405 373q39 0 61 20t22 51q0 35 -20 51t-64 16h-49v-138h50zM416 -10q-80 0 -147 27t-116.5 76.5t-76.5 116.5t-27 147t27 147t76.5 116.5t116.5 76.5t147 27
q76 0 142.5 -27t117 -76.5t79 -116.5t28.5 -147t-27 -147t-76.5 -116.5t-116.5 -76.5t-147 -27zM416 43q64 0 120 23t99 65.5t67 99.5t24 126q0 65 -23 122t-64.5 100t-98 67.5t-124.5 24.5t-125 -23t-98.5 -65.5t-64.5 -99.5t-23 -126q0 -65 23 -122t64.5 -100t98.5 -67.5
t125 -24.5z" />
    <glyph glyph-name="overscore" unicode="&#xaf;" horiz-adv-x="500" 
d="M503 760h-506v66h506v-66z" />
    <glyph glyph-name="degree" unicode="&#xb0;" horiz-adv-x="428" 
d="M214 417q-48 0 -83.5 19.5t-55.5 54t-20 79.5q0 46 19.5 80.5t55 54t84.5 19.5q47 0 83 -19.5t56 -54t20 -80.5q0 -45 -20 -79.5t-56 -54t-83 -19.5zM215 476q48 0 70.5 26t22.5 68q0 44 -23.5 70t-69.5 26q-49 0 -72 -26t-23 -70q0 -42 23 -68t72 -26z" />
    <glyph glyph-name="acute" unicode="&#xb4;" horiz-adv-x="281" 
d="M241 756q-9 -14 -26 -34t-37.5 -41.5t-41 -41t-38.5 -33.5h-58v12q15 19 32.5 45t34.5 53.5t28 49.5h106v-10z" />
    <glyph glyph-name="paragraph" unicode="&#xb6;" horiz-adv-x="655" 
d="M549 -127h-58v831h-102v-831h-58v400q-15 -4 -34.5 -6.5t-36.5 -2.5q-62 0 -108 23t-71.5 77t-25.5 145q0 96 27.5 150.5t77.5 77.5t115 23h274v-887z" />
    <glyph glyph-name="periodcentered" unicode="&#xb7;" horiz-adv-x="268" 
d="M72 353q0 37 18 52t43 15q26 0 44.5 -15t18.5 -52q0 -36 -18.5 -52t-44.5 -16q-25 0 -43 16t-18 52z" />
    <glyph glyph-name="cedilla" unicode="&#xb8;" horiz-adv-x="225" 
d="M212 -139q0 -48 -37 -74.5t-111 -26.5q-15 0 -28.5 1.5t-21.5 3.5v55q9 -2 24 -3.5t29 -1.5q36 0 55 9.5t19 34.5q0 26 -26.5 38t-64.5 17l43 86h58l-26 -53q24 -5 44 -15.5t31.5 -27.5t11.5 -43z" />
    <glyph glyph-name="ordmasculine" unicode="&#xba;" horiz-adv-x="376" 
d="M345 553q0 -81 -43 -125.5t-115 -44.5q-67 0 -111 43.5t-44 126.5q0 82 42 125.5t115 43.5q47 0 82 -19.5t54.5 -57t19.5 -92.5zM95 553q0 -58 22 -87.5t71 -29.5t71 29.5t22 87.5q0 59 -22 87.5t-71 28.5t-71 -28.5t-22 -87.5z" />
    <glyph glyph-name="guillemotright" unicode="&#xbb;" horiz-adv-x="509" 
d="M469 257l-170 -201l-62 37l140 171l-140 171l62 36l170 -201v-13zM270 257l-169 -201l-62 37l140 171l-140 171l62 36l169 -201v-13z" />
    <glyph glyph-name="questiondown" unicode="&#xbf;" horiz-adv-x="434" 
d="M292 304q0 -37 -7.5 -65t-25.5 -52.5t-51 -52.5q-38 -32 -60 -54.5t-31 -43.5t-9 -51q0 -48 31.5 -74t89.5 -26q50 0 88 13t72 29l31 -70q-40 -21 -88.5 -35t-108.5 -14q-95 0 -147 47t-52 128q0 45 14.5 76.5t41 58t62.5 56.5q34 29 51 49.5t23 41.5t6 49v17h70v-27z
M315 478q0 -37 -17.5 -52t-44.5 -15q-25 0 -43 15t-18 52q0 36 18 52t43 16q27 0 44.5 -16t17.5 -52z" />
    <glyph glyph-name="Agrave" unicode="&#xc0;" horiz-adv-x="639" 
d="M545 0l-86 221h-283l-85 -221h-91l279 717h81l278 -717h-93zM352 517q-3 8 -10 29t-13.5 43.5t-10.5 34.5q-5 -20 -10.5 -40.5t-11 -37.5t-9.5 -29l-81 -216h226zM293 944q11 -22 27.5 -49.5t35 -53.5t33.5 -45v-12h-59q-17 14 -38 33.5t-41.5 41t-37 41.5t-25.5 34v10
h105z" />
    <glyph glyph-name="Aacute" unicode="&#xc1;" horiz-adv-x="639" 
d="M545 0l-86 221h-283l-85 -221h-91l279 717h81l278 -717h-93zM352 517q-3 8 -10 29t-13.5 43.5t-10.5 34.5q-5 -20 -10.5 -40.5t-11 -37.5t-9.5 -29l-81 -216h226zM466 934q-9 -14 -26 -34t-37.5 -41.5t-41 -41t-38.5 -33.5h-58v12q15 19 32.5 45t34.5 53.5t28 49.5h106
v-10z" />
    <glyph glyph-name="Acircumflex" unicode="&#xc2;" horiz-adv-x="639" 
d="M545 0l-86 221h-283l-85 -221h-91l279 717h81l278 -717h-93zM352 517q-3 8 -10 29t-13.5 43.5t-10.5 34.5q-5 -20 -10.5 -40.5t-11 -37.5t-9.5 -29l-81 -216h226zM362 944q12 -22 34.5 -49.5t47 -54t43.5 -45.5v-11h-62q-26 16 -54 39.5t-55 50.5q-27 -27 -54 -50
t-53 -40h-60v11q19 20 42.5 46t45.5 53.5t35 49.5h90z" />
    <glyph glyph-name="Atilde" unicode="&#xc3;" horiz-adv-x="639" 
d="M545 0l-86 221h-283l-85 -221h-91l279 717h81l278 -717h-93zM352 517q-3 8 -10 29t-13.5 43.5t-10.5 34.5q-5 -20 -10.5 -40.5t-11 -37.5t-9.5 -29l-81 -216h226zM135 784q3 30 11.5 53.5t22.5 40t33 25.5t43 9q22 0 42.5 -8.5t39.5 -20t36.5 -20t33.5 -8.5
q23 0 35.5 14.5t19.5 43.5h50q-6 -58 -34 -93t-75 -35q-21 0 -41 8.5t-39.5 20t-37 20t-34.5 8.5q-24 0 -36 -14.5t-19 -43.5h-51z" />
    <glyph glyph-name="Adieresis" unicode="&#xc4;" horiz-adv-x="639" 
d="M545 0l-86 221h-283l-85 -221h-91l279 717h81l278 -717h-93zM352 517q-3 8 -10 29t-13.5 43.5t-10.5 34.5q-5 -20 -10.5 -40.5t-11 -37.5t-9.5 -29l-81 -216h226zM178 859q0 26 14 37.5t33 11.5t33 -11.5t14 -37.5q0 -25 -14 -37.5t-33 -12.5t-33 12.5t-14 37.5zM366 859
q0 26 13.5 37.5t32.5 11.5t33 -11.5t14 -37.5q0 -25 -14 -37.5t-33 -12.5t-32.5 12.5t-13.5 37.5z" />
    <glyph glyph-name="Aring" unicode="&#xc5;" horiz-adv-x="639" 
d="M545 0l-86 221h-283l-85 -221h-91l279 717h81l278 -717h-93zM352 517q-3 8 -10 29t-13.5 43.5t-10.5 34.5q-5 -20 -10.5 -40.5t-11 -37.5t-9.5 -29l-81 -216h226zM317 667q-49 0 -79 28t-30 78t30 77.5t79 27.5q47 0 79 -27.5t32 -76.5q0 -51 -31.5 -79t-79.5 -28z
M317 717q25 0 40.5 15t15.5 41t-16 41t-40 15t-40 -15t-16 -41t14.5 -41t41.5 -15z" />
    <glyph glyph-name="AE" unicode="&#xc6;" horiz-adv-x="881" 
d="M821 0h-372v221h-250l-107 -221h-93l339 714h483v-79h-282v-223h263v-78h-263v-255h282v-79zM234 301h215v333h-58z" />
    <glyph glyph-name="Ccedilla" unicode="&#xc7;" horiz-adv-x="632" 
d="M403 645q-57 0 -103 -19.5t-78 -57t-49 -91t-17 -120.5q0 -88 27.5 -153t82 -100t136.5 -35q47 0 89 8t82 20v-78q-40 -15 -82.5 -22t-101.5 -7q-109 0 -182 45t-109.5 128t-36.5 195q0 81 22.5 148t66 116t107.5 75.5t147 26.5q55 0 106 -11t91 -31l-36 -76
q-33 15 -73.5 27t-88.5 12zM473 -139q0 -48 -37 -74.5t-111 -26.5q-15 0 -28.5 1.5t-21.5 3.5v55q9 -2 24 -3.5t29 -1.5q36 0 55 9.5t19 34.5q0 26 -26.5 38t-64.5 17l43 86h58l-26 -53q24 -5 44 -15.5t31.5 -27.5t11.5 -43z" />
    <glyph glyph-name="Egrave" unicode="&#xc8;" horiz-adv-x="556" 
d="M496 0h-399v714h399v-79h-309v-223h291v-78h-291v-255h309v-79zM280 944q11 -22 27.5 -49.5t35 -53.5t33.5 -45v-12h-59q-17 14 -38 33.5t-41.5 41t-37 41.5t-25.5 34v10h105z" />
    <glyph glyph-name="Eacute" unicode="&#xc9;" horiz-adv-x="556" 
d="M496 0h-399v714h399v-79h-309v-223h291v-78h-291v-255h309v-79zM453 934q-9 -14 -26 -34t-37.5 -41.5t-41 -41t-38.5 -33.5h-58v12q15 19 32.5 45t34.5 53.5t28 49.5h106v-10z" />
    <glyph glyph-name="Ecircumflex" unicode="&#xca;" horiz-adv-x="556" 
d="M496 0h-399v714h399v-79h-309v-223h291v-78h-291v-255h309v-79zM349 944q12 -22 34.5 -49.5t47 -54t43.5 -45.5v-11h-62q-26 16 -54 39.5t-55 50.5q-27 -27 -54 -50t-53 -40h-60v11q19 20 42.5 46t45.5 53.5t35 49.5h90z" />
    <glyph glyph-name="Edieresis" unicode="&#xcb;" horiz-adv-x="556" 
d="M496 0h-399v714h399v-79h-309v-223h291v-78h-291v-255h309v-79zM165 859q0 26 14 37.5t33 11.5t33 -11.5t14 -37.5q0 -25 -14 -37.5t-33 -12.5t-33 12.5t-14 37.5zM353 859q0 26 13.5 37.5t32.5 11.5t33 -11.5t14 -37.5q0 -25 -14 -37.5t-33 -12.5t-32.5 12.5t-13.5 37.5
z" />
    <glyph glyph-name="Igrave" unicode="&#xcc;" horiz-adv-x="339" 
d="M298 0h-258v52l84 19v571l-84 20v52h258v-52l-84 -20v-571l84 -19v-52zM145 944q11 -22 27.5 -49.5t35 -53.5t33.5 -45v-12h-59q-17 14 -38 33.5t-41.5 41t-37 41.5t-25.5 34v10h105z" />
    <glyph glyph-name="Iacute" unicode="&#xcd;" horiz-adv-x="339" 
d="M298 0h-258v52l84 19v571l-84 20v52h258v-52l-84 -20v-571l84 -19v-52zM318 934q-9 -14 -26 -34t-37.5 -41.5t-41 -41t-38.5 -33.5h-58v12q15 19 32.5 45t34.5 53.5t28 49.5h106v-10z" />
    <glyph glyph-name="Icircumflex" unicode="&#xce;" horiz-adv-x="339" 
d="M298 0h-258v52l84 19v571l-84 20v52h258v-52l-84 -20v-571l84 -19v-52zM214 944q12 -22 34.5 -49.5t47 -54t43.5 -45.5v-11h-62q-26 16 -54 39.5t-55 50.5q-27 -27 -54 -50t-53 -40h-60v11q19 20 42.5 46t45.5 53.5t35 49.5h90z" />
    <glyph glyph-name="Idieresis" unicode="&#xcf;" horiz-adv-x="339" 
d="M298 0h-258v52l84 19v571l-84 20v52h258v-52l-84 -20v-571l84 -19v-52zM30 859q0 26 14 37.5t33 11.5t33 -11.5t14 -37.5q0 -25 -14 -37.5t-33 -12.5t-33 12.5t-14 37.5zM218 859q0 26 13.5 37.5t32.5 11.5t33 -11.5t14 -37.5q0 -25 -14 -37.5t-33 -12.5t-32.5 12.5
t-13.5 37.5z" />
    <glyph glyph-name="Eth" unicode="&#xd0;" horiz-adv-x="730" 
d="M317 714q107 0 186 -40t122.5 -117.5t43.5 -192.5q0 -120 -44.5 -201t-128 -122t-201.5 -41h-191v314h-74v78h74v322h213zM304 637h-110v-245h178v-78h-178v-237h90q146 0 218 71.5t72 212.5q0 95 -32 156t-92 90.5t-146 29.5z" />
    <glyph glyph-name="Ntilde" unicode="&#xd1;" horiz-adv-x="760" 
d="M663 0h-105l-382 593h-4q2 -23 3.5 -54.5t3 -67t1.5 -72.5v-399h-83v714h104l381 -591h4q-1 16 -2.5 48t-3 70t-1.5 70v403h84v-714zM197 784q3 30 11.5 53.5t22.5 40t33 25.5t43 9q22 0 42.5 -8.5t39.5 -20t36.5 -20t33.5 -8.5q23 0 35.5 14.5t19.5 43.5h50
q-6 -58 -34 -93t-75 -35q-21 0 -41 8.5t-39.5 20t-37 20t-34.5 8.5q-24 0 -36 -14.5t-19 -43.5h-51z" />
    <glyph glyph-name="Ograve" unicode="&#xd2;" horiz-adv-x="781" 
d="M720 358q0 -83 -21 -150.5t-62.5 -116.5t-103 -75t-142.5 -26q-84 0 -146 26.5t-103 75t-61 116.5t-20 151q0 110 36 192t109.5 128t185.5 46q107 0 180 -45.5t110.5 -128t37.5 -193.5zM156 358q0 -90 25 -155t77.5 -100t132.5 -35q81 0 132.5 35t76.5 100t25 155
q0 135 -56 211.5t-177 76.5q-81 0 -133.5 -34.5t-77.5 -99t-25 -154.5zM366 944q11 -22 27.5 -49.5t35 -53.5t33.5 -45v-12h-59q-17 14 -38 33.5t-41.5 41t-37 41.5t-25.5 34v10h105z" />
    <glyph glyph-name="Oacute" unicode="&#xd3;" horiz-adv-x="781" 
d="M720 358q0 -83 -21 -150.5t-62.5 -116.5t-103 -75t-142.5 -26q-84 0 -146 26.5t-103 75t-61 116.5t-20 151q0 110 36 192t109.5 128t185.5 46q107 0 180 -45.5t110.5 -128t37.5 -193.5zM156 358q0 -90 25 -155t77.5 -100t132.5 -35q81 0 132.5 35t76.5 100t25 155
q0 135 -56 211.5t-177 76.5q-81 0 -133.5 -34.5t-77.5 -99t-25 -154.5zM539 934q-9 -14 -26 -34t-37.5 -41.5t-41 -41t-38.5 -33.5h-58v12q15 19 32.5 45t34.5 53.5t28 49.5h106v-10z" />
    <glyph glyph-name="Ocircumflex" unicode="&#xd4;" horiz-adv-x="781" 
d="M720 358q0 -83 -21 -150.5t-62.5 -116.5t-103 -75t-142.5 -26q-84 0 -146 26.5t-103 75t-61 116.5t-20 151q0 110 36 192t109.5 128t185.5 46q107 0 180 -45.5t110.5 -128t37.5 -193.5zM156 358q0 -90 25 -155t77.5 -100t132.5 -35q81 0 132.5 35t76.5 100t25 155
q0 135 -56 211.5t-177 76.5q-81 0 -133.5 -34.5t-77.5 -99t-25 -154.5zM435 944q12 -22 34.5 -49.5t47 -54t43.5 -45.5v-11h-62q-26 16 -54 39.5t-55 50.5q-27 -27 -54 -50t-53 -40h-60v11q19 20 42.5 46t45.5 53.5t35 49.5h90z" />
    <glyph glyph-name="Otilde" unicode="&#xd5;" horiz-adv-x="781" 
d="M720 358q0 -83 -21 -150.5t-62.5 -116.5t-103 -75t-142.5 -26q-84 0 -146 26.5t-103 75t-61 116.5t-20 151q0 110 36 192t109.5 128t185.5 46q107 0 180 -45.5t110.5 -128t37.5 -193.5zM156 358q0 -90 25 -155t77.5 -100t132.5 -35q81 0 132.5 35t76.5 100t25 155
q0 135 -56 211.5t-177 76.5q-81 0 -133.5 -34.5t-77.5 -99t-25 -154.5zM208 784q3 30 11.5 53.5t22.5 40t33 25.5t43 9q22 0 42.5 -8.5t39.5 -20t36.5 -20t33.5 -8.5q23 0 35.5 14.5t19.5 43.5h50q-6 -58 -34 -93t-75 -35q-21 0 -41 8.5t-39.5 20t-37 20t-34.5 8.5
q-24 0 -36 -14.5t-19 -43.5h-51z" />
    <glyph glyph-name="Odieresis" unicode="&#xd6;" horiz-adv-x="781" 
d="M720 358q0 -83 -21 -150.5t-62.5 -116.5t-103 -75t-142.5 -26q-84 0 -146 26.5t-103 75t-61 116.5t-20 151q0 110 36 192t109.5 128t185.5 46q107 0 180 -45.5t110.5 -128t37.5 -193.5zM156 358q0 -90 25 -155t77.5 -100t132.5 -35q81 0 132.5 35t76.5 100t25 155
q0 135 -56 211.5t-177 76.5q-81 0 -133.5 -34.5t-77.5 -99t-25 -154.5zM251 859q0 26 14 37.5t33 11.5t33 -11.5t14 -37.5q0 -25 -14 -37.5t-33 -12.5t-33 12.5t-14 37.5zM439 859q0 26 13.5 37.5t32.5 11.5t33 -11.5t14 -37.5q0 -25 -14 -37.5t-33 -12.5t-32.5 12.5
t-13.5 37.5z" />
    <glyph glyph-name="multiply" unicode="&#xd7;" horiz-adv-x="572" 
d="M456 574l50 -51l-170 -170l169 -170l-50 -51l-171 169l-167 -169l-52 51l169 170l-170 169l52 52l169 -171z" />
    <glyph glyph-name="Oslash" unicode="&#xd8;" horiz-adv-x="781" 
d="M720 358q0 -83 -21 -150.5t-62.5 -116.5t-103 -75t-142.5 -26q-56 0 -102.5 12t-82.5 35l-48 -68l-61 40l52 74q-44 49 -66 119t-22 157q0 110 36 192t109.5 128t185.5 46q52 0 96.5 -12t81.5 -33l46 66l61 -41l-51 -71q46 -48 70 -118t24 -158zM625 358q0 129 -51 202
l-320 -454q26 -18 60.5 -28t76.5 -10q81 0 132.5 35t76.5 100t25 155zM156 358q0 -61 11.5 -111t35.5 -87l319 451q-25 17 -57.5 26t-72.5 9q-81 0 -133.5 -34.5t-77.5 -99t-25 -154.5z" />
    <glyph glyph-name="Ugrave" unicode="&#xd9;" horiz-adv-x="731" 
d="M640 252q0 -74 -30 -133.5t-91.5 -94t-156.5 -34.5q-133 0 -202.5 72.5t-69.5 191.5v460h90v-463q0 -87 46.5 -135t140.5 -48q65 0 105.5 23.5t59.5 65t19 95.5v462h89v-462zM341 944q11 -22 27.5 -49.5t35 -53.5t33.5 -45v-12h-59q-17 14 -38 33.5t-41.5 41t-37 41.5
t-25.5 34v10h105z" />
    <glyph glyph-name="Uacute" unicode="&#xda;" horiz-adv-x="731" 
d="M640 252q0 -74 -30 -133.5t-91.5 -94t-156.5 -34.5q-133 0 -202.5 72.5t-69.5 191.5v460h90v-463q0 -87 46.5 -135t140.5 -48q65 0 105.5 23.5t59.5 65t19 95.5v462h89v-462zM514 934q-9 -14 -26 -34t-37.5 -41.5t-41 -41t-38.5 -33.5h-58v12q15 19 32.5 45t34.5 53.5
t28 49.5h106v-10z" />
    <glyph glyph-name="Ucircumflex" unicode="&#xdb;" horiz-adv-x="731" 
d="M640 252q0 -74 -30 -133.5t-91.5 -94t-156.5 -34.5q-133 0 -202.5 72.5t-69.5 191.5v460h90v-463q0 -87 46.5 -135t140.5 -48q65 0 105.5 23.5t59.5 65t19 95.5v462h89v-462zM410 944q12 -22 34.5 -49.5t47 -54t43.5 -45.5v-11h-62q-26 16 -54 39.5t-55 50.5
q-27 -27 -54 -50t-53 -40h-60v11q19 20 42.5 46t45.5 53.5t35 49.5h90z" />
    <glyph glyph-name="Udieresis" unicode="&#xdc;" horiz-adv-x="731" 
d="M640 252q0 -74 -30 -133.5t-91.5 -94t-156.5 -34.5q-133 0 -202.5 72.5t-69.5 191.5v460h90v-463q0 -87 46.5 -135t140.5 -48q65 0 105.5 23.5t59.5 65t19 95.5v462h89v-462zM226 859q0 26 14 37.5t33 11.5t33 -11.5t14 -37.5q0 -25 -14 -37.5t-33 -12.5t-33 12.5
t-14 37.5zM414 859q0 26 13.5 37.5t32.5 11.5t33 -11.5t14 -37.5q0 -25 -14 -37.5t-33 -12.5t-32.5 12.5t-13.5 37.5z" />
    <glyph glyph-name="Yacute" unicode="&#xdd;" horiz-adv-x="566" 
d="M283 363l186 351h97l-238 -437v-277h-90v273l-238 441h98zM431 934q-9 -14 -26 -34t-37.5 -41.5t-41 -41t-38.5 -33.5h-58v12q15 19 32.5 45t34.5 53.5t28 49.5h106v-10z" />
    <glyph glyph-name="Thorn" unicode="&#xde;" horiz-adv-x="605" 
d="M554 382q0 -45 -14 -86t-47 -72.5t-88 -50t-137 -18.5h-81v-155h-90v714h90v-124h96q145 0 208 -55t63 -153zM259 231q70 0 114.5 14.5t66 47t21.5 84.5q0 69 -43.5 102.5t-141.5 33.5h-89v-282h72z" />
    <glyph glyph-name="germandbls" unicode="&#xdf;" horiz-adv-x="631" 
d="M522 617q0 -34 -14 -59.5t-35 -45t-42 -35.5t-35 -31.5t-14 -33.5q0 -13 6.5 -24t25.5 -25.5t56 -39.5q36 -24 62 -48t40 -53t14 -69q0 -57 -23.5 -93t-65.5 -53t-97 -17q-47 0 -83 9t-62 25v79q17 -10 40 -20t49.5 -16t52.5 -6q55 0 79 23t24 63q0 24 -8.5 42.5
t-29 36.5t-56.5 41q-42 27 -65.5 48.5t-33.5 43.5t-10 48q0 31 13.5 53t34 38.5t41 32.5t34 35t13.5 46q0 42 -35.5 61t-91.5 19q-35 0 -65.5 -9.5t-49 -32.5t-18.5 -66v-584h-88v584q0 67 29 106.5t79 57t113 17.5q65 0 113.5 -16.5t75.5 -49t27 -82.5z" />
    <glyph glyph-name="agrave" unicode="&#xe0;" horiz-adv-x="561" 
d="M288 545q98 0 145 -43t47 -137v-365h-64l-17 76h-4q-23 -29 -47.5 -48.5t-56 -28.5t-76.5 -9q-48 0 -86.5 17t-60.5 52.5t-22 89.5q0 80 63 123.5t194 47.5l91 3v32q0 67 -29 93t-82 26q-42 0 -80 -12.5t-71 -28.5l-27 66q35 19 83 32.5t100 13.5zM314 259
q-100 -4 -138.5 -32t-38.5 -79q0 -45 27.5 -66t70.5 -21q68 0 113 37.5t45 115.5v48zM256 766q11 -22 27.5 -49.5t35 -53.5t33.5 -45v-12h-59q-17 14 -38 33.5t-41.5 41t-37 41.5t-25.5 34v10h105z" />
    <glyph glyph-name="aacute" unicode="&#xe1;" horiz-adv-x="561" 
d="M288 545q98 0 145 -43t47 -137v-365h-64l-17 76h-4q-23 -29 -47.5 -48.5t-56 -28.5t-76.5 -9q-48 0 -86.5 17t-60.5 52.5t-22 89.5q0 80 63 123.5t194 47.5l91 3v32q0 67 -29 93t-82 26q-42 0 -80 -12.5t-71 -28.5l-27 66q35 19 83 32.5t100 13.5zM314 259
q-100 -4 -138.5 -32t-38.5 -79q0 -45 27.5 -66t70.5 -21q68 0 113 37.5t45 115.5v48zM429 756q-9 -14 -26 -34t-37.5 -41.5t-41 -41t-38.5 -33.5h-58v12q15 19 32.5 45t34.5 53.5t28 49.5h106v-10z" />
    <glyph glyph-name="acircumflex" unicode="&#xe2;" horiz-adv-x="561" 
d="M288 545q98 0 145 -43t47 -137v-365h-64l-17 76h-4q-23 -29 -47.5 -48.5t-56 -28.5t-76.5 -9q-48 0 -86.5 17t-60.5 52.5t-22 89.5q0 80 63 123.5t194 47.5l91 3v32q0 67 -29 93t-82 26q-42 0 -80 -12.5t-71 -28.5l-27 66q35 19 83 32.5t100 13.5zM314 259
q-100 -4 -138.5 -32t-38.5 -79q0 -45 27.5 -66t70.5 -21q68 0 113 37.5t45 115.5v48zM325 766q12 -22 34.5 -49.5t47 -54t43.5 -45.5v-11h-62q-26 16 -54 39.5t-55 50.5q-27 -27 -54 -50t-53 -40h-60v11q19 20 42.5 46t45.5 53.5t35 49.5h90z" />
    <glyph glyph-name="atilde" unicode="&#xe3;" horiz-adv-x="561" 
d="M288 545q98 0 145 -43t47 -137v-365h-64l-17 76h-4q-23 -29 -47.5 -48.5t-56 -28.5t-76.5 -9q-48 0 -86.5 17t-60.5 52.5t-22 89.5q0 80 63 123.5t194 47.5l91 3v32q0 67 -29 93t-82 26q-42 0 -80 -12.5t-71 -28.5l-27 66q35 19 83 32.5t100 13.5zM314 259
q-100 -4 -138.5 -32t-38.5 -79q0 -45 27.5 -66t70.5 -21q68 0 113 37.5t45 115.5v48zM98 606q3 30 11.5 53.5t22.5 40t33 25.5t43 9q22 0 42.5 -8.5t39.5 -20t36.5 -20t33.5 -8.5q23 0 35.5 14.5t19.5 43.5h50q-6 -58 -34 -93t-75 -35q-21 0 -41 8.5t-39.5 20t-37 20
t-34.5 8.5q-24 0 -36 -14.5t-19 -43.5h-51z" />
    <glyph glyph-name="adieresis" unicode="&#xe4;" horiz-adv-x="561" 
d="M288 545q98 0 145 -43t47 -137v-365h-64l-17 76h-4q-23 -29 -47.5 -48.5t-56 -28.5t-76.5 -9q-48 0 -86.5 17t-60.5 52.5t-22 89.5q0 80 63 123.5t194 47.5l91 3v32q0 67 -29 93t-82 26q-42 0 -80 -12.5t-71 -28.5l-27 66q35 19 83 32.5t100 13.5zM314 259
q-100 -4 -138.5 -32t-38.5 -79q0 -45 27.5 -66t70.5 -21q68 0 113 37.5t45 115.5v48zM141 681q0 26 14 37.5t33 11.5t33 -11.5t14 -37.5q0 -25 -14 -37.5t-33 -12.5t-33 12.5t-14 37.5zM329 681q0 26 13.5 37.5t32.5 11.5t33 -11.5t14 -37.5q0 -25 -14 -37.5t-33 -12.5
t-32.5 12.5t-13.5 37.5z" />
    <glyph glyph-name="aring" unicode="&#xe5;" horiz-adv-x="561" 
d="M288 545q98 0 145 -43t47 -137v-365h-64l-17 76h-4q-23 -29 -47.5 -48.5t-56 -28.5t-76.5 -9q-48 0 -86.5 17t-60.5 52.5t-22 89.5q0 80 63 123.5t194 47.5l91 3v32q0 67 -29 93t-82 26q-42 0 -80 -12.5t-71 -28.5l-27 66q35 19 83 32.5t100 13.5zM314 259
q-100 -4 -138.5 -32t-38.5 -79q0 -45 27.5 -66t70.5 -21q68 0 113 37.5t45 115.5v48zM280 606q-49 0 -79 28t-30 78t30 77.5t79 27.5q47 0 79 -27.5t32 -76.5q0 -51 -31.5 -79t-79.5 -28zM280 656q25 0 40.5 15t15.5 41t-16 41t-40 15t-40 -15t-16 -41t14.5 -41t41.5 -15z
" />
    <glyph glyph-name="ae" unicode="&#xe6;" horiz-adv-x="864" 
d="M603 546q65 0 112 -30t72.5 -84t25.5 -126v-54h-343q2 -96 41.5 -141.5t113.5 -45.5q50 0 88 9.5t76 27.5v-77q-40 -18 -78.5 -26.5t-88.5 -8.5q-46 0 -84.5 12.5t-68 38t-50.5 62.5q-23 -34 -50.5 -59.5t-64 -39.5t-88.5 -14q-48 0 -86.5 17t-61 52.5t-22.5 89.5
t26.5 91t81 57.5t136.5 22.5l90 3v34q0 65 -30.5 91t-81.5 26q-40 0 -78.5 -12t-71.5 -29l-27 66q35 20 85 33t99 13q62 0 102.5 -20.5t61.5 -65.5q26 41 68 64t96 23zM303 259q-94 -4 -130 -32t-36 -79q0 -45 25.5 -66t67.5 -21t75.5 16.5t53 50.5t19.5 86v48zM602 474
q-58 0 -91.5 -39.5t-38.5 -113.5h248q0 46 -12.5 80.5t-38.5 53.5t-67 19z" />
    <glyph glyph-name="ccedilla" unicode="&#xe7;" horiz-adv-x="480" 
d="M300 -10q-71 0 -126.5 29t-87 90t-31.5 156q0 99 33 161t89.5 91t128.5 29q41 0 79 -8.5t62 -20.5l-27 -73q-24 9 -56 17t-60 8q-54 0 -89 -23t-52 -68t-17 -112q0 -64 17 -109t51 -68t85 -23q44 0 77.5 9t61.5 22v-78q-27 -14 -59.5 -21.5t-78.5 -7.5zM382 -139
q0 -48 -37 -74.5t-111 -26.5q-15 0 -28.5 1.5t-21.5 3.5v55q9 -2 24 -3.5t29 -1.5q36 0 55 9.5t19 34.5q0 26 -26.5 38t-64.5 17l43 86h58l-26 -53q24 -5 44 -15.5t31.5 -27.5t11.5 -43z" />
    <glyph glyph-name="egrave" unicode="&#xe8;" horiz-adv-x="564" 
d="M292 546q69 0 118.5 -30t76 -84.5t26.5 -127.5v-53h-367q2 -91 46.5 -138.5t124.5 -47.5q51 0 90.5 9.5t81.5 27.5v-77q-41 -18 -81 -26.5t-95 -8.5q-76 0 -134.5 31t-91 92.5t-32.5 150.5q0 88 29.5 151t83 97t124.5 34zM291 474q-63 0 -99.5 -40.5t-43.5 -112.5h273
q0 46 -14 80t-42.5 53.5t-73.5 19.5zM260 766q11 -22 27.5 -49.5t35 -53.5t33.5 -45v-12h-59q-17 14 -38 33.5t-41.5 41t-37 41.5t-25.5 34v10h105z" />
    <glyph glyph-name="eacute" unicode="&#xe9;" horiz-adv-x="564" 
d="M292 546q69 0 118.5 -30t76 -84.5t26.5 -127.5v-53h-367q2 -91 46.5 -138.5t124.5 -47.5q51 0 90.5 9.5t81.5 27.5v-77q-41 -18 -81 -26.5t-95 -8.5q-76 0 -134.5 31t-91 92.5t-32.5 150.5q0 88 29.5 151t83 97t124.5 34zM291 474q-63 0 -99.5 -40.5t-43.5 -112.5h273
q0 46 -14 80t-42.5 53.5t-73.5 19.5zM433 756q-9 -14 -26 -34t-37.5 -41.5t-41 -41t-38.5 -33.5h-58v12q15 19 32.5 45t34.5 53.5t28 49.5h106v-10z" />
    <glyph glyph-name="ecircumflex" unicode="&#xea;" horiz-adv-x="564" 
d="M292 546q69 0 118.5 -30t76 -84.5t26.5 -127.5v-53h-367q2 -91 46.5 -138.5t124.5 -47.5q51 0 90.5 9.5t81.5 27.5v-77q-41 -18 -81 -26.5t-95 -8.5q-76 0 -134.5 31t-91 92.5t-32.5 150.5q0 88 29.5 151t83 97t124.5 34zM291 474q-63 0 -99.5 -40.5t-43.5 -112.5h273
q0 46 -14 80t-42.5 53.5t-73.5 19.5zM329 766q12 -22 34.5 -49.5t47 -54t43.5 -45.5v-11h-62q-26 16 -54 39.5t-55 50.5q-27 -27 -54 -50t-53 -40h-60v11q19 20 42.5 46t45.5 53.5t35 49.5h90z" />
    <glyph glyph-name="edieresis" unicode="&#xeb;" horiz-adv-x="564" 
d="M292 546q69 0 118.5 -30t76 -84.5t26.5 -127.5v-53h-367q2 -91 46.5 -138.5t124.5 -47.5q51 0 90.5 9.5t81.5 27.5v-77q-41 -18 -81 -26.5t-95 -8.5q-76 0 -134.5 31t-91 92.5t-32.5 150.5q0 88 29.5 151t83 97t124.5 34zM291 474q-63 0 -99.5 -40.5t-43.5 -112.5h273
q0 46 -14 80t-42.5 53.5t-73.5 19.5zM145 681q0 26 14 37.5t33 11.5t33 -11.5t14 -37.5q0 -25 -14 -37.5t-33 -12.5t-33 12.5t-14 37.5zM333 681q0 26 13.5 37.5t32.5 11.5t33 -11.5t14 -37.5q0 -25 -14 -37.5t-33 -12.5t-32.5 12.5t-13.5 37.5z" />
    <glyph glyph-name="igrave" unicode="&#xec;" horiz-adv-x="258" 
d="M173 0h-88v536h88v-536zM104 766q11 -22 27.5 -49.5t35 -53.5t33.5 -45v-12h-59q-17 14 -38 33.5t-41.5 41t-37 41.5t-25.5 34v10h105z" />
    <glyph glyph-name="iacute" unicode="&#xed;" horiz-adv-x="258" 
d="M173 0h-88v536h88v-536zM277 756q-9 -14 -26 -34t-37.5 -41.5t-41 -41t-38.5 -33.5h-58v12q15 19 32.5 45t34.5 53.5t28 49.5h106v-10z" />
    <glyph glyph-name="icircumflex" unicode="&#xee;" horiz-adv-x="258" 
d="M173 0h-88v536h88v-536zM173 766q12 -22 34.5 -49.5t47 -54t43.5 -45.5v-11h-62q-26 16 -54 39.5t-55 50.5q-27 -27 -54 -50t-53 -40h-60v11q19 20 42.5 46t45.5 53.5t35 49.5h90z" />
    <glyph glyph-name="idieresis" unicode="&#xef;" horiz-adv-x="258" 
d="M173 0h-88v536h88v-536zM-11 681q0 26 14 37.5t33 11.5t33 -11.5t14 -37.5q0 -25 -14 -37.5t-33 -12.5t-33 12.5t-14 37.5zM177 681q0 26 13.5 37.5t32.5 11.5t33 -11.5t14 -37.5q0 -25 -14 -37.5t-33 -12.5t-32.5 12.5t-13.5 37.5z" />
    <glyph glyph-name="eth" unicode="&#xf0;" horiz-adv-x="605" 
d="M216 765q32 -15 64.5 -33t61.5 -39l115 67l38 -54l-99 -57q46 -42 80.5 -98.5t54.5 -125.5t20 -150q0 -95 -30 -158.5t-86 -95t-134 -31.5q-72 0 -127.5 29.5t-87 84t-31.5 129.5t29 128.5t81.5 82.5t124.5 29q35 0 64.5 -6t52.5 -19t39 -33l4 2q-16 57 -49 105t-75 86
l-130 -75l-38 55l112 64q-21 14 -44 27.5t-46 25.5zM303 402q-56 0 -91 -20t-51.5 -58t-16.5 -94q0 -49 16.5 -87t52 -59.5t90.5 -21.5q83 0 121 48.5t38 140.5q0 31 -9.5 58.5t-29.5 48t-49.5 32.5t-70.5 12z" />
    <glyph glyph-name="ntilde" unicode="&#xf1;" horiz-adv-x="618" 
d="M343 546q96 0 145 -46.5t49 -150.5v-349h-87v343q0 65 -29 97t-91 32q-89 0 -123 -50t-34 -144v-278h-88v536h71l13 -73h5q18 28 44.5 46.5t58.5 27.5t66 9zM126 606q3 30 11.5 53.5t22.5 40t33 25.5t43 9q22 0 42.5 -8.5t39.5 -20t36.5 -20t33.5 -8.5q23 0 35.5 14.5
t19.5 43.5h50q-6 -58 -34 -93t-75 -35q-21 0 -41 8.5t-39.5 20t-37 20t-34.5 8.5q-24 0 -36 -14.5t-19 -43.5h-51z" />
    <glyph glyph-name="ograve" unicode="&#xf2;" horiz-adv-x="605" 
d="M551 269q0 -67 -17.5 -118.5t-50 -87.5t-79 -54.5t-103.5 -18.5q-53 0 -98 18.5t-78 54.5t-51.5 87.5t-18.5 118.5q0 89 30 150.5t86 94t133 32.5q73 0 128.5 -32.5t87 -94t31.5 -150.5zM146 269q0 -63 16.5 -109.5t51.5 -71.5t89 -25t89 25t51.5 71.5t16.5 109.5
q0 64 -17 109t-51.5 69.5t-89.5 24.5q-82 0 -119 -54t-37 -149zM278 766q11 -22 27.5 -49.5t35 -53.5t33.5 -45v-12h-59q-17 14 -38 33.5t-41.5 41t-37 41.5t-25.5 34v10h105z" />
    <glyph glyph-name="oacute" unicode="&#xf3;" horiz-adv-x="605" 
d="M551 269q0 -67 -17.5 -118.5t-50 -87.5t-79 -54.5t-103.5 -18.5q-53 0 -98 18.5t-78 54.5t-51.5 87.5t-18.5 118.5q0 89 30 150.5t86 94t133 32.5q73 0 128.5 -32.5t87 -94t31.5 -150.5zM146 269q0 -63 16.5 -109.5t51.5 -71.5t89 -25t89 25t51.5 71.5t16.5 109.5
q0 64 -17 109t-51.5 69.5t-89.5 24.5q-82 0 -119 -54t-37 -149zM451 756q-9 -14 -26 -34t-37.5 -41.5t-41 -41t-38.5 -33.5h-58v12q15 19 32.5 45t34.5 53.5t28 49.5h106v-10z" />
    <glyph glyph-name="ocircumflex" unicode="&#xf4;" horiz-adv-x="605" 
d="M551 269q0 -67 -17.5 -118.5t-50 -87.5t-79 -54.5t-103.5 -18.5q-53 0 -98 18.5t-78 54.5t-51.5 87.5t-18.5 118.5q0 89 30 150.5t86 94t133 32.5q73 0 128.5 -32.5t87 -94t31.5 -150.5zM146 269q0 -63 16.5 -109.5t51.5 -71.5t89 -25t89 25t51.5 71.5t16.5 109.5
q0 64 -17 109t-51.5 69.5t-89.5 24.5q-82 0 -119 -54t-37 -149zM347 766q12 -22 34.5 -49.5t47 -54t43.5 -45.5v-11h-62q-26 16 -54 39.5t-55 50.5q-27 -27 -54 -50t-53 -40h-60v11q19 20 42.5 46t45.5 53.5t35 49.5h90z" />
    <glyph glyph-name="otilde" unicode="&#xf5;" horiz-adv-x="605" 
d="M551 269q0 -67 -17.5 -118.5t-50 -87.5t-79 -54.5t-103.5 -18.5q-53 0 -98 18.5t-78 54.5t-51.5 87.5t-18.5 118.5q0 89 30 150.5t86 94t133 32.5q73 0 128.5 -32.5t87 -94t31.5 -150.5zM146 269q0 -63 16.5 -109.5t51.5 -71.5t89 -25t89 25t51.5 71.5t16.5 109.5
q0 64 -17 109t-51.5 69.5t-89.5 24.5q-82 0 -119 -54t-37 -149zM120 606q3 30 11.5 53.5t22.5 40t33 25.5t43 9q22 0 42.5 -8.5t39.5 -20t36.5 -20t33.5 -8.5q23 0 35.5 14.5t19.5 43.5h50q-6 -58 -34 -93t-75 -35q-21 0 -41 8.5t-39.5 20t-37 20t-34.5 8.5q-24 0 -36 -14.5
t-19 -43.5h-51z" />
    <glyph glyph-name="odieresis" unicode="&#xf6;" horiz-adv-x="605" 
d="M551 269q0 -67 -17.5 -118.5t-50 -87.5t-79 -54.5t-103.5 -18.5q-53 0 -98 18.5t-78 54.5t-51.5 87.5t-18.5 118.5q0 89 30 150.5t86 94t133 32.5q73 0 128.5 -32.5t87 -94t31.5 -150.5zM146 269q0 -63 16.5 -109.5t51.5 -71.5t89 -25t89 25t51.5 71.5t16.5 109.5
q0 64 -17 109t-51.5 69.5t-89.5 24.5q-82 0 -119 -54t-37 -149zM163 681q0 26 14 37.5t33 11.5t33 -11.5t14 -37.5q0 -25 -14 -37.5t-33 -12.5t-33 12.5t-14 37.5zM351 681q0 26 13.5 37.5t32.5 11.5t33 -11.5t14 -37.5q0 -25 -14 -37.5t-33 -12.5t-32.5 12.5t-13.5 37.5z
" />
    <glyph glyph-name="divide" unicode="&#xf7;" horiz-adv-x="572" 
d="M50 317v71h471v-71h-471zM285 121q-23 0 -39.5 14.5t-16.5 46.5q0 34 16.5 47t39.5 13t39 -13t16 -47q0 -32 -16 -46.5t-39 -14.5zM285 462q-23 0 -39.5 14.5t-16.5 46.5q0 34 16.5 47t39.5 13t39 -13t16 -47q0 -32 -16 -46.5t-39 -14.5z" />
    <glyph glyph-name="oslash" unicode="&#xf8;" horiz-adv-x="605" 
d="M551 269q0 -89 -30.5 -151.5t-86.5 -95t-133 -32.5q-37 0 -69 8.5t-60 24.5l-40 -56l-58 39l45 62q-31 36 -47.5 86.5t-16.5 114.5q0 133 67 205t182 72q37 0 70 -9.5t61 -26.5l39 56l59 -38l-45 -63q29 -35 46 -84.5t17 -111.5zM146 269q0 -38 5.5 -70.5t18.5 -57.5
l220 306q-17 12 -39.5 18.5t-48.5 6.5q-82 0 -119 -54t-37 -149zM460 269q0 37 -6 68t-17 55l-220 -306q17 -11 39 -17t47 -6q54 0 89 25t51.5 71.5t16.5 109.5z" />
    <glyph glyph-name="ugrave" unicode="&#xf9;" horiz-adv-x="618" 
d="M533 536v-536h-72l-13 71h-4q-17 -28 -44 -46t-59 -26.5t-67 -8.5q-64 0 -107.5 20.5t-65.5 63.5t-22 111v351h89v-345q0 -64 29 -96t90 -32q60 0 94.5 22.5t49 66t14.5 105.5v279h88zM284 766q11 -22 27.5 -49.5t35 -53.5t33.5 -45v-12h-59q-17 14 -38 33.5t-41.5 41
t-37 41.5t-25.5 34v10h105z" />
    <glyph glyph-name="uacute" unicode="&#xfa;" horiz-adv-x="618" 
d="M533 536v-536h-72l-13 71h-4q-17 -28 -44 -46t-59 -26.5t-67 -8.5q-64 0 -107.5 20.5t-65.5 63.5t-22 111v351h89v-345q0 -64 29 -96t90 -32q60 0 94.5 22.5t49 66t14.5 105.5v279h88zM457 756q-9 -14 -26 -34t-37.5 -41.5t-41 -41t-38.5 -33.5h-58v12q15 19 32.5 45
t34.5 53.5t28 49.5h106v-10z" />
    <glyph glyph-name="ucircumflex" unicode="&#xfb;" horiz-adv-x="618" 
d="M533 536v-536h-72l-13 71h-4q-17 -28 -44 -46t-59 -26.5t-67 -8.5q-64 0 -107.5 20.5t-65.5 63.5t-22 111v351h89v-345q0 -64 29 -96t90 -32q60 0 94.5 22.5t49 66t14.5 105.5v279h88zM353 766q12 -22 34.5 -49.5t47 -54t43.5 -45.5v-11h-62q-26 16 -54 39.5t-55 50.5
q-27 -27 -54 -50t-53 -40h-60v11q19 20 42.5 46t45.5 53.5t35 49.5h90z" />
    <glyph glyph-name="udieresis" unicode="&#xfc;" horiz-adv-x="618" 
d="M533 536v-536h-72l-13 71h-4q-17 -28 -44 -46t-59 -26.5t-67 -8.5q-64 0 -107.5 20.5t-65.5 63.5t-22 111v351h89v-345q0 -64 29 -96t90 -32q60 0 94.5 22.5t49 66t14.5 105.5v279h88zM169 681q0 26 14 37.5t33 11.5t33 -11.5t14 -37.5q0 -25 -14 -37.5t-33 -12.5
t-33 12.5t-14 37.5zM357 681q0 26 13.5 37.5t32.5 11.5t33 -11.5t14 -37.5q0 -25 -14 -37.5t-33 -12.5t-32.5 12.5t-13.5 37.5z" />
    <glyph glyph-name="yacute" unicode="&#xfd;" horiz-adv-x="510" 
d="M1 536h94l116 -305q10 -27 18.5 -52t15.5 -48.5t11 -45.5h4q6 25 19 65.5t27 81.5l109 304h95l-231 -610q-19 -50 -44.5 -87.5t-62 -58t-88.5 -20.5q-24 0 -42 2.5t-31 5.5v70q11 -2 26.5 -4t32.5 -2q31 0 53.5 11.5t38.5 33t27 50.5l28 71zM403 756q-9 -14 -26 -34
t-37.5 -41.5t-41 -41t-38.5 -33.5h-58v12q15 19 32.5 45t34.5 53.5t28 49.5h106v-10z" />
    <glyph glyph-name="thorn" unicode="&#xfe;" horiz-adv-x="615" 
d="M560 269q0 -91 -27.5 -153.5t-77 -94t-115.5 -31.5q-42 0 -73.5 10.5t-54.5 28.5t-39 39h-6q1 -7 2.5 -23t2.5 -33t1 -28v-224h-88v1000h88v-224q0 -14 -1 -36.5t-2 -35.5h4q16 23 38.5 41.5t53.5 29.5t74 11q99 0 159.5 -70t60.5 -207zM469 270q0 101 -35 151.5
t-109 50.5q-82 0 -116 -46t-36 -138v-19q0 -99 32.5 -152.5t120.5 -53.5q49 0 80.5 24t47 70.5t15.5 112.5z" />
    <glyph glyph-name="ydieresis" unicode="&#xff;" horiz-adv-x="510" 
d="M1 536h94l116 -305q10 -27 18.5 -52t15.5 -48.5t11 -45.5h4q6 25 19 65.5t27 81.5l109 304h95l-231 -610q-19 -50 -44.5 -87.5t-62 -58t-88.5 -20.5q-24 0 -42 2.5t-31 5.5v70q11 -2 26.5 -4t32.5 -2q31 0 53.5 11.5t38.5 33t27 50.5l28 71zM115 681q0 26 14 37.5
t33 11.5t33 -11.5t14 -37.5q0 -25 -14 -37.5t-33 -12.5t-33 12.5t-14 37.5zM303 681q0 26 13.5 37.5t32.5 11.5t33 -11.5t14 -37.5q0 -25 -14 -37.5t-33 -12.5t-32.5 12.5t-13.5 37.5z" />
    <glyph glyph-name="Amacron" unicode="&#x100;" horiz-adv-x="639" 
d="M545 0l-86 221h-283l-85 -221h-91l279 717h81l278 -717h-93zM352 517q-3 8 -10 29t-13.5 43.5t-10.5 34.5q-5 -20 -10.5 -40.5t-11 -37.5t-9.5 -29l-81 -216h226zM466 855v-71h-297v71h297z" />
    <glyph glyph-name="amacron" unicode="&#x101;" horiz-adv-x="561" 
d="M288 545q98 0 145 -43t47 -137v-365h-64l-17 76h-4q-23 -29 -47.5 -48.5t-56 -28.5t-76.5 -9q-48 0 -86.5 17t-60.5 52.5t-22 89.5q0 80 63 123.5t194 47.5l91 3v32q0 67 -29 93t-82 26q-42 0 -80 -12.5t-71 -28.5l-27 66q35 19 83 32.5t100 13.5zM314 259
q-100 -4 -138.5 -32t-38.5 -79q0 -45 27.5 -66t70.5 -21q68 0 113 37.5t45 115.5v48zM429 677v-71h-297v71h297z" />
    <glyph glyph-name="Abreve" unicode="&#x102;" horiz-adv-x="639" 
d="M545 0l-86 221h-283l-85 -221h-91l279 717h81l278 -717h-93zM352 517q-3 8 -10 29t-13.5 43.5t-10.5 34.5q-5 -20 -10.5 -40.5t-11 -37.5t-9.5 -29l-81 -216h226zM473 918q-3 -40 -22.5 -70t-53.5 -47t-82 -17q-74 0 -111.5 36.5t-41.5 97.5h54q5 -41 30 -52t71 -11
q39 0 67.5 12t33.5 51h55z" />
    <glyph glyph-name="abreve" unicode="&#x103;" horiz-adv-x="561" 
d="M288 545q98 0 145 -43t47 -137v-365h-64l-17 76h-4q-23 -29 -47.5 -48.5t-56 -28.5t-76.5 -9q-48 0 -86.5 17t-60.5 52.5t-22 89.5q0 80 63 123.5t194 47.5l91 3v32q0 67 -29 93t-82 26q-42 0 -80 -12.5t-71 -28.5l-27 66q35 19 83 32.5t100 13.5zM314 259
q-100 -4 -138.5 -32t-38.5 -79q0 -45 27.5 -66t70.5 -21q68 0 113 37.5t45 115.5v48zM436 740q-3 -40 -22.5 -70t-53.5 -47t-82 -17q-74 0 -111.5 36.5t-41.5 97.5h54q5 -41 30 -52t71 -11q39 0 67.5 12t33.5 51h55z" />
    <glyph glyph-name="Aogonek" unicode="&#x104;" horiz-adv-x="639" 
d="M545 0l-86 221h-283l-85 -221h-91l279 717h81l278 -717h-93zM352 517q-3 8 -10 29t-13.5 43.5t-10.5 34.5q-5 -20 -10.5 -40.5t-11 -37.5t-9.5 -29l-81 -216h226zM545 -116q0 -22 12 -33.5t33 -11.5q17 0 28.5 2.5t19.5 3.5v-56q-14 -4 -28 -6.5t-34 -2.5q-53 0 -78 25
t-25 69q0 29 14.5 56t36 49t41.5 36l48 -15q-34 -32 -51 -58.5t-17 -57.5z" />
    <glyph glyph-name="aogonek" unicode="&#x105;" horiz-adv-x="561" 
d="M288 545q98 0 145 -43t47 -137v-365h-64l-17 76h-4q-23 -29 -47.5 -48.5t-56 -28.5t-76.5 -9q-48 0 -86.5 17t-60.5 52.5t-22 89.5q0 80 63 123.5t194 47.5l91 3v32q0 67 -29 93t-82 26q-42 0 -80 -12.5t-71 -28.5l-27 66q35 19 83 32.5t100 13.5zM314 259
q-100 -4 -138.5 -32t-38.5 -79q0 -45 27.5 -66t70.5 -21q68 0 113 37.5t45 115.5v48zM412 -116q0 -22 12 -33.5t33 -11.5q17 0 28.5 2.5t19.5 3.5v-56q-14 -4 -28 -6.5t-34 -2.5q-53 0 -78 25t-25 69q0 29 14.5 56t36 49t41.5 36l48 -15q-34 -32 -51 -58.5t-17 -57.5z" />
    <glyph glyph-name="Cacute" unicode="&#x106;" horiz-adv-x="632" 
d="M403 645q-57 0 -103 -19.5t-78 -57t-49 -91t-17 -120.5q0 -88 27.5 -153t82 -100t136.5 -35q47 0 89 8t82 20v-78q-40 -15 -82.5 -22t-101.5 -7q-109 0 -182 45t-109.5 128t-36.5 195q0 81 22.5 148t66 116t107.5 75.5t147 26.5q55 0 106 -11t91 -31l-36 -76
q-33 15 -73.5 27t-88.5 12zM528 934q-9 -14 -26 -34t-37.5 -41.5t-41 -41t-38.5 -33.5h-58v12q15 19 32.5 45t34.5 53.5t28 49.5h106v-10z" />
    <glyph glyph-name="cacute" unicode="&#x107;" horiz-adv-x="480" 
d="M300 -10q-71 0 -126.5 29t-87 90t-31.5 156q0 99 33 161t89.5 91t128.5 29q41 0 79 -8.5t62 -20.5l-27 -73q-24 9 -56 17t-60 8q-54 0 -89 -23t-52 -68t-17 -112q0 -64 17 -109t51 -68t85 -23q44 0 77.5 9t61.5 22v-78q-27 -14 -59.5 -21.5t-78.5 -7.5zM432 756
q-9 -14 -26 -34t-37.5 -41.5t-41 -41t-38.5 -33.5h-58v12q15 19 32.5 45t34.5 53.5t28 49.5h106v-10z" />
    <glyph glyph-name="Cdotaccent" unicode="&#x10a;" horiz-adv-x="632" 
d="M403 645q-57 0 -103 -19.5t-78 -57t-49 -91t-17 -120.5q0 -88 27.5 -153t82 -100t136.5 -35q47 0 89 8t82 20v-78q-40 -15 -82.5 -22t-101.5 -7q-109 0 -182 45t-109.5 128t-36.5 195q0 81 22.5 148t66 116t107.5 75.5t147 26.5q55 0 106 -11t91 -31l-36 -76
q-33 15 -73.5 27t-88.5 12zM381 915q20 0 35.5 -13.5t15.5 -42.5q0 -28 -15.5 -42t-35.5 -14q-22 0 -37 14t-15 42q0 29 15 42.5t37 13.5z" />
    <glyph glyph-name="cdotaccent" unicode="&#x10b;" horiz-adv-x="480" 
d="M300 -10q-71 0 -126.5 29t-87 90t-31.5 156q0 99 33 161t89.5 91t128.5 29q41 0 79 -8.5t62 -20.5l-27 -73q-24 9 -56 17t-60 8q-54 0 -89 -23t-52 -68t-17 -112q0 -64 17 -109t51 -68t85 -23q44 0 77.5 9t61.5 22v-78q-27 -14 -59.5 -21.5t-78.5 -7.5zM285 737
q20 0 35.5 -13.5t15.5 -42.5q0 -28 -15.5 -42t-35.5 -14q-22 0 -37 14t-15 42q0 29 15 42.5t37 13.5z" />
    <glyph glyph-name="Ccaron" unicode="&#x10c;" horiz-adv-x="632" 
d="M403 645q-57 0 -103 -19.5t-78 -57t-49 -91t-17 -120.5q0 -88 27.5 -153t82 -100t136.5 -35q47 0 89 8t82 20v-78q-40 -15 -82.5 -22t-101.5 -7q-109 0 -182 45t-109.5 128t-36.5 195q0 81 22.5 148t66 116t107.5 75.5t147 26.5q55 0 106 -11t91 -31l-36 -76
q-33 15 -73.5 27t-88.5 12zM334 784q-13 23 -35 49.5t-46 52.5t-42 45v13h60q26 -17 54 -41t53 -51q27 27 55 51t54 41h62v-13q-19 -19 -43.5 -45t-47 -52.5t-34.5 -49.5h-90z" />
    <glyph glyph-name="ccaron" unicode="&#x10d;" horiz-adv-x="480" 
d="M300 -10q-71 0 -126.5 29t-87 90t-31.5 156q0 99 33 161t89.5 91t128.5 29q41 0 79 -8.5t62 -20.5l-27 -73q-24 9 -56 17t-60 8q-54 0 -89 -23t-52 -68t-17 -112q0 -64 17 -109t51 -68t85 -23q44 0 77.5 9t61.5 22v-78q-27 -14 -59.5 -21.5t-78.5 -7.5zM238 606
q-13 23 -35 49.5t-46 52.5t-42 45v13h60q26 -17 54 -41t53 -51q27 27 55 51t54 41h62v-13q-19 -19 -43.5 -45t-47 -52.5t-34.5 -49.5h-90z" />
    <glyph glyph-name="Dcaron" unicode="&#x10e;" horiz-adv-x="730" 
d="M669 364q0 -120 -44.5 -201t-127.5 -122t-201 -41h-199v714h220q108 0 187 -40t122 -117.5t43 -192.5zM574 361q0 95 -31.5 156t-92 90.5t-146.5 29.5h-117v-560h97q145 0 217.5 71.5t72.5 212.5zM315 784q-13 23 -35 49.5t-46 52.5t-42 45v13h60q26 -17 54 -41t53 -51
q27 27 55 51t54 41h62v-13q-19 -19 -43.5 -45t-47 -52.5t-34.5 -49.5h-90z" />
    <glyph glyph-name="dcaron" unicode="&#x10f;" horiz-adv-x="615" 
d="M275 -10q-100 0 -160 69.5t-60 207.5t60.5 208.5t160.5 70.5q42 0 73 -10.5t54 -28.5t39 -40h6q-1 13 -3.5 38.5t-2.5 40.5v214h88v-760h-71l-13 72h-4q-16 -23 -39 -41.5t-54.5 -29.5t-73.5 -11zM289 63q85 0 119.5 46.5t34.5 140.5v16q0 100 -33 153.5t-122 53.5
q-71 0 -106.5 -56.5t-35.5 -151.5q0 -96 35.5 -149t107.5 -53zM688 751q-4 -18 -15.5 -45t-26.5 -55.5t-30 -50.5h-48v12q5 14 10 33t9.5 39.5t8 40t5.5 35.5h87v-9z" />
    <glyph glyph-name="Dcroat" unicode="&#x110;" horiz-adv-x="730" 
d="M317 714q107 0 186 -40t122.5 -117.5t43.5 -192.5q0 -120 -44.5 -201t-128 -122t-201.5 -41h-191v314h-74v78h74v322h213zM304 637h-110v-245h178v-78h-178v-237h90q146 0 218 71.5t72 212.5q0 95 -32 156t-92 90.5t-146 29.5z" />
    <glyph glyph-name="dcroat" unicode="&#x111;" horiz-adv-x="617" 
d="M275 -10q-100 0 -160 69.5t-60 205.5q0 140 60.5 209t159.5 69q42 0 73.5 -10.5t54.5 -28.5t39 -40h6q-2 13 -4 38.5t-2 41.5v61h-213v66h213v89h88v-89h76v-66h-76v-605h-72l-13 72h-4q-16 -23 -39 -41.5t-54 -29.5t-73 -11zM290 63q84 0 118.5 46t34.5 139v17
q0 101 -33 153t-122 52q-71 0 -106 -55t-35 -151t35 -148.5t108 -52.5z" />
    <glyph glyph-name="Emacron" unicode="&#x112;" horiz-adv-x="556" 
d="M496 0h-399v714h399v-79h-309v-223h291v-78h-291v-255h309v-79zM453 855v-71h-297v71h297z" />
    <glyph glyph-name="emacron" unicode="&#x113;" horiz-adv-x="564" 
d="M292 546q69 0 118.5 -30t76 -84.5t26.5 -127.5v-53h-367q2 -91 46.5 -138.5t124.5 -47.5q51 0 90.5 9.5t81.5 27.5v-77q-41 -18 -81 -26.5t-95 -8.5q-76 0 -134.5 31t-91 92.5t-32.5 150.5q0 88 29.5 151t83 97t124.5 34zM291 474q-63 0 -99.5 -40.5t-43.5 -112.5h273
q0 46 -14 80t-42.5 53.5t-73.5 19.5zM433 677v-71h-297v71h297z" />
    <glyph glyph-name="Edotaccent" unicode="&#x116;" horiz-adv-x="556" 
d="M496 0h-399v714h399v-79h-309v-223h291v-78h-291v-255h309v-79zM306 915q20 0 35.5 -13.5t15.5 -42.5q0 -28 -15.5 -42t-35.5 -14q-22 0 -37 14t-15 42q0 29 15 42.5t37 13.5z" />
    <glyph glyph-name="edotaccent" unicode="&#x117;" horiz-adv-x="564" 
d="M292 546q69 0 118.5 -30t76 -84.5t26.5 -127.5v-53h-367q2 -91 46.5 -138.5t124.5 -47.5q51 0 90.5 9.5t81.5 27.5v-77q-41 -18 -81 -26.5t-95 -8.5q-76 0 -134.5 31t-91 92.5t-32.5 150.5q0 88 29.5 151t83 97t124.5 34zM291 474q-63 0 -99.5 -40.5t-43.5 -112.5h273
q0 46 -14 80t-42.5 53.5t-73.5 19.5zM286 737q20 0 35.5 -13.5t15.5 -42.5q0 -28 -15.5 -42t-35.5 -14q-22 0 -37 14t-15 42q0 29 15 42.5t37 13.5z" />
    <glyph glyph-name="Eogonek" unicode="&#x118;" horiz-adv-x="556" 
d="M496 0h-399v714h399v-79h-309v-223h291v-78h-291v-255h309v-79zM398 -116q0 -22 12 -33.5t33 -11.5q17 0 28.5 2.5t19.5 3.5v-56q-14 -4 -28 -6.5t-34 -2.5q-53 0 -78 25t-25 69q0 29 14.5 56t36 49t41.5 36l48 -15q-34 -32 -51 -58.5t-17 -57.5z" />
    <glyph glyph-name="eogonek" unicode="&#x119;" horiz-adv-x="564" 
d="M389 -116q0 -22 12 -33.5t33 -11.5q17 0 28.5 2.5t19.5 3.5v-56q-14 -4 -28 -6.5t-34 -2.5q-53 0 -78 25t-25 69q0 29 14.5 56t36 49t41.5 36l80 10q-40 -32 -62 -56t-30 -44t-8 -41zM292 546q69 0 118.5 -30t76 -84.5t26.5 -127.5v-53h-367q2 -91 46.5 -138.5
t124.5 -47.5q51 0 90.5 9.5t81.5 27.5v-77q-41 -18 -81 -26.5t-95 -8.5q-76 0 -134.5 31t-91 92.5t-32.5 150.5q0 88 29.5 151t83 97t124.5 34zM291 474q-63 0 -99.5 -40.5t-43.5 -112.5h273q0 46 -14 80t-42.5 53.5t-73.5 19.5z" />
    <glyph glyph-name="Ecaron" unicode="&#x11a;" horiz-adv-x="556" 
d="M496 0h-399v714h399v-79h-309v-223h291v-78h-291v-255h309v-79zM259 784q-13 23 -35 49.5t-46 52.5t-42 45v13h60q26 -17 54 -41t53 -51q27 27 55 51t54 41h62v-13q-19 -19 -43.5 -45t-47 -52.5t-34.5 -49.5h-90z" />
    <glyph glyph-name="ecaron" unicode="&#x11b;" horiz-adv-x="564" 
d="M292 546q69 0 118.5 -30t76 -84.5t26.5 -127.5v-53h-367q2 -91 46.5 -138.5t124.5 -47.5q51 0 90.5 9.5t81.5 27.5v-77q-41 -18 -81 -26.5t-95 -8.5q-76 0 -134.5 31t-91 92.5t-32.5 150.5q0 88 29.5 151t83 97t124.5 34zM291 474q-63 0 -99.5 -40.5t-43.5 -112.5h273
q0 46 -14 80t-42.5 53.5t-73.5 19.5zM239 606q-13 23 -35 49.5t-46 52.5t-42 45v13h60q26 -17 54 -41t53 -51q27 27 55 51t54 41h62v-13q-19 -19 -43.5 -45t-47 -52.5t-34.5 -49.5h-90z" />
    <glyph glyph-name="Gbreve" unicode="&#x11e;" horiz-adv-x="728" 
d="M407 377h247v-350q-58 -19 -117 -28t-134 -9q-111 0 -187 44.5t-115.5 127t-39.5 195.5q0 112 44 194t126.5 127.5t199.5 45.5q60 0 113.5 -11t99.5 -31l-34 -78q-38 17 -85.5 29t-98.5 12q-85 0 -146 -35t-93 -99.5t-32 -153.5q0 -85 27.5 -150.5t86.5 -102t155 -36.5
q47 0 80 5t60 12v212h-157v80zM560 918q-3 -40 -22.5 -70t-53.5 -47t-82 -17q-74 0 -111.5 36.5t-41.5 97.5h54q5 -41 30 -52t71 -11q39 0 67.5 12t33.5 51h55z" />
    <glyph glyph-name="gbreve" unicode="&#x11f;" horiz-adv-x="615" 
d="M275 546q53 0 95.5 -20t72.5 -61h5l12 71h70v-545q0 -76 -26 -127.5t-79 -77.5t-135 -26q-58 0 -106.5 8.5t-86.5 25.5v81q38 -20 89 -31t109 -11q69 0 108.5 40.5t39.5 110.5v21q0 12 1 34.5t2 31.5h-4q-28 -41 -69.5 -61t-96.5 -20q-104 0 -162.5 73t-58.5 204
q0 128 58.5 203.5t161.5 75.5zM287 472q-45 0 -76.5 -24t-48 -70t-16.5 -112q0 -99 36.5 -151.5t106.5 -52.5q41 0 70 10.5t48 33t28 57.5t9 83v21q0 73 -16.5 118t-51.5 66t-89 21zM452 740q-3 -40 -22.5 -70t-53.5 -47t-82 -17q-74 0 -111.5 36.5t-41.5 97.5h54
q5 -41 30 -52t71 -11q39 0 67.5 12t33.5 51h55z" />
    <glyph glyph-name="Gdotaccent" unicode="&#x120;" horiz-adv-x="728" 
d="M407 377h247v-350q-58 -19 -117 -28t-134 -9q-111 0 -187 44.5t-115.5 127t-39.5 195.5q0 112 44 194t126.5 127.5t199.5 45.5q60 0 113.5 -11t99.5 -31l-34 -78q-38 17 -85.5 29t-98.5 12q-85 0 -146 -35t-93 -99.5t-32 -153.5q0 -85 27.5 -150.5t86.5 -102t155 -36.5
q47 0 80 5t60 12v212h-157v80zM406 915q20 0 35.5 -13.5t15.5 -42.5q0 -28 -15.5 -42t-35.5 -14q-22 0 -37 14t-15 42q0 29 15 42.5t37 13.5z" />
    <glyph glyph-name="gdotaccent" unicode="&#x121;" horiz-adv-x="615" 
d="M275 546q53 0 95.5 -20t72.5 -61h5l12 71h70v-545q0 -76 -26 -127.5t-79 -77.5t-135 -26q-58 0 -106.5 8.5t-86.5 25.5v81q38 -20 89 -31t109 -11q69 0 108.5 40.5t39.5 110.5v21q0 12 1 34.5t2 31.5h-4q-28 -41 -69.5 -61t-96.5 -20q-104 0 -162.5 73t-58.5 204
q0 128 58.5 203.5t161.5 75.5zM287 472q-45 0 -76.5 -24t-48 -70t-16.5 -112q0 -99 36.5 -151.5t106.5 -52.5q41 0 70 10.5t48 33t28 57.5t9 83v21q0 73 -16.5 118t-51.5 66t-89 21zM298 737q20 0 35.5 -13.5t15.5 -42.5q0 -28 -15.5 -42t-35.5 -14q-22 0 -37 14t-15 42
q0 29 15 42.5t37 13.5z" />
    <glyph glyph-name="uni0122" unicode="&#x122;" horiz-adv-x="728" 
d="M407 377h247v-350q-58 -19 -117 -28t-134 -9q-111 0 -187 44.5t-115.5 127t-39.5 195.5q0 112 44 194t126.5 127.5t199.5 45.5q60 0 113.5 -11t99.5 -31l-34 -78q-38 17 -85.5 29t-98.5 12q-85 0 -146 -35t-93 -99.5t-32 -153.5q0 -85 27.5 -150.5t86.5 -102t155 -36.5
q47 0 80 5t60 12v212h-157v80zM466 -70q-4 -18 -16.5 -45.5t-29 -55.5t-34.5 -50h-48v12q8 17 16.5 43.5t15.5 55t9 49.5h87v-9z" />
    <glyph glyph-name="uni0123" unicode="&#x123;" horiz-adv-x="615" 
d="M275 546q53 0 95.5 -20t72.5 -61h5l12 71h70v-545q0 -76 -26 -127.5t-79 -77.5t-135 -26q-58 0 -106.5 8.5t-86.5 25.5v81q38 -20 89 -31t109 -11q69 0 108.5 40.5t39.5 110.5v21q0 12 1 34.5t2 31.5h-4q-28 -41 -69.5 -61t-96.5 -20q-104 0 -162.5 73t-58.5 204
q0 128 58.5 203.5t161.5 75.5zM287 472q-45 0 -76.5 -24t-48 -70t-16.5 -112q0 -99 36.5 -151.5t106.5 -52.5q41 0 70 10.5t48 33t28 57.5t9 83v21q0 73 -16.5 118t-51.5 66t-89 21zM363 754q-8 -17 -16.5 -43.5t-15.5 -54.5t-10 -50h-87v9q5 18 17 45t28.5 55.5t34.5 50.5
h49v-12z" />
    <glyph glyph-name="Hbar" unicode="&#x126;" horiz-adv-x="741" 
d="M97 0v523h-97v72h97v119h90v-119h366v119h90v-119h97v-72h-97v-523h-90v333h-366v-333h-90zM187 412h366v111h-366v-111z" />
    <glyph glyph-name="hbar" unicode="&#x127;" horiz-adv-x="618" 
d="M173 760v-90h212v-66h-212v-87q0 -19 -1.5 -38.5t-3.5 -35.5h6q17 28 43 46t58 27.5t67 9.5q65 0 108 -20.5t65 -64t22 -112.5v-329h-87v323q0 65 -29 97t-91 32q-60 0 -94 -22.5t-48.5 -65.5t-14.5 -106v-258h-88v604h-76v66h76v90h88z" />
    <glyph glyph-name="Imacron" unicode="&#x12a;" horiz-adv-x="339" 
d="M298 0h-258v52l84 19v571l-84 20v52h258v-52l-84 -20v-571l84 -19v-52zM318 855v-71h-297v71h297z" />
    <glyph glyph-name="imacron" unicode="&#x12b;" horiz-adv-x="258" 
d="M173 0h-88v536h88v-536zM277 677v-71h-297v71h297z" />
    <glyph glyph-name="Iogonek" unicode="&#x12e;" horiz-adv-x="339" 
d="M298 0h-258v52l84 19v571l-84 20v52h258v-52l-84 -20v-571l84 -19v-52zM204 -116q0 -22 12 -33.5t33 -11.5q17 0 28.5 2.5t19.5 3.5v-56q-14 -4 -28 -6.5t-34 -2.5q-53 0 -78 25t-25 69q0 29 14.5 56t36 49t41.5 36l48 -15q-34 -32 -51 -58.5t-17 -57.5z" />
    <glyph glyph-name="iogonek" unicode="&#x12f;" horiz-adv-x="258" 
d="M173 536v-536h-88v536h88zM130 737q20 0 35.5 -13.5t15.5 -42.5q0 -28 -15.5 -42t-35.5 -14q-22 0 -37 14t-15 42q0 29 15 42.5t37 13.5zM99 -116q0 -22 12 -33.5t33 -11.5q17 0 28.5 2.5t19.5 3.5v-56q-14 -4 -28 -6.5t-34 -2.5q-53 0 -78 25t-25 69q0 29 14.5 56t36 49
t41.5 36l48 -15q-34 -32 -51 -58.5t-17 -57.5z" />
    <glyph glyph-name="Idotaccent" unicode="&#x130;" horiz-adv-x="339" 
d="M298 0h-258v52l84 19v571l-84 20v52h258v-52l-84 -20v-571l84 -19v-52zM171 915q20 0 35.5 -13.5t15.5 -42.5q0 -28 -15.5 -42t-35.5 -14q-22 0 -37 14t-15 42q0 29 15 42.5t37 13.5z" />
    <glyph glyph-name="dotlessi" unicode="&#x131;" horiz-adv-x="258" 
d="M173 0h-88v536h88v-536z" />
    <glyph glyph-name="IJ" unicode="&#x132;" horiz-adv-x="612" 
d="M298 0h-258v52l84 19v571l-84 20v52h258v-52l-84 -20v-571l84 -19v-52zM335 -190q-24 0 -42 3.5t-32 9.5v76q16 -4 34 -7t38 -3q25 0 47.5 10t36.5 35t14 70v710h90v-703q0 -69 -23 -113.5t-65 -66t-98 -21.5z" />
    <glyph glyph-name="ij" unicode="&#x133;" horiz-adv-x="516" 
d="M173 536v-536h-88v536h88zM130 737q20 0 35.5 -13.5t15.5 -42.5q0 -28 -15.5 -42t-35.5 -14q-22 0 -37 14t-15 42q0 29 15 42.5t37 13.5zM280 -240q-25 0 -44 3.5t-33 8.5v71q15 -4 31 -7t35 -3q32 0 53 17.5t21 66.5v619h88v-616q0 -50 -16 -86t-49 -55t-86 -19z
M336 681q0 29 15 42.5t37 13.5q20 0 35.5 -13.5t15.5 -42.5q0 -28 -15.5 -42t-35.5 -14q-22 0 -37 14t-15 42z" />
    <glyph glyph-name="uni0136" unicode="&#x136;" horiz-adv-x="619" 
d="M619 0h-106l-253 341l-73 -64v-277h-90v714h90v-352q30 34 61 68l62 68l193 216h105l-283 -311zM394 -70q-4 -18 -16.5 -45.5t-29 -55.5t-34.5 -50h-48v12q8 17 16.5 43.5t15.5 55t9 49.5h87v-9z" />
    <glyph glyph-name="uni0137" unicode="&#x137;" horiz-adv-x="534" 
d="M172 363q0 -16 -1.5 -42t-2.5 -45h4q6 8 18 23t24.5 30.5t21.5 25.5l171 181h103l-217 -229l232 -307h-106l-186 250l-61 -53v-197h-87v760h87v-397zM331 -70q-4 -18 -16.5 -45.5t-29 -55.5t-34.5 -50h-48v12q8 17 16.5 43.5t15.5 55t9 49.5h87v-9z" />
    <glyph glyph-name="Lacute" unicode="&#x139;" horiz-adv-x="524" 
d="M97 0v714h90v-634h312v-80h-402zM288 934q-9 -14 -26 -34t-37.5 -41.5t-41 -41t-38.5 -33.5h-58v12q15 19 32.5 45t34.5 53.5t28 49.5h106v-10z" />
    <glyph glyph-name="lacute" unicode="&#x13a;" horiz-adv-x="258" 
d="M173 0h-88v760h88v-760zM277 980q-9 -14 -26 -34t-37.5 -41.5t-41 -41t-38.5 -33.5h-58v12q15 19 32.5 45t34.5 53.5t28 49.5h106v-10z" />
    <glyph glyph-name="uni013B" unicode="&#x13b;" horiz-adv-x="524" 
d="M97 0v714h90v-634h312v-80h-402zM364 -70q-4 -18 -16.5 -45.5t-29 -55.5t-34.5 -50h-48v12q8 17 16.5 43.5t15.5 55t9 49.5h87v-9z" />
    <glyph glyph-name="uni013C" unicode="&#x13c;" horiz-adv-x="258" 
d="M173 0h-88v760h88v-760zM193 -70q-4 -18 -16.5 -45.5t-29 -55.5t-34.5 -50h-48v12q8 17 16.5 43.5t15.5 55t9 49.5h87v-9z" />
    <glyph glyph-name="Lcaron" unicode="&#x13d;" horiz-adv-x="524" 
d="M97 0v714h90v-634h312v-80h-402zM499 705q-4 -18 -15.5 -45t-26.5 -55.5t-30 -50.5h-48v12q5 14 10 33t9.5 39.5t8 40t5.5 35.5h87v-9z" />
    <glyph glyph-name="lcaron" unicode="&#x13e;" horiz-adv-x="258" 
d="M173 0h-88v760h88v-760zM337 751q-4 -18 -15.5 -45t-26.5 -55.5t-30 -50.5h-48v12q5 14 10 33t9.5 39.5t8 40t5.5 35.5h87v-9z" />
    <glyph glyph-name="Lslash" unicode="&#x141;" horiz-adv-x="524" 
d="M97 0v247l-49 -28l-35 60l84 50v385h90v-332l137 81l36 -63l-173 -100v-220h312v-80h-402z" />
    <glyph glyph-name="lslash" unicode="&#x142;" horiz-adv-x="258" 
d="M78 0v285l-51 -32l-36 59l87 56v392h88v-335l64 44l37 -59l-101 -68v-342h-88z" />
    <glyph glyph-name="Nacute" unicode="&#x143;" horiz-adv-x="760" 
d="M663 0h-105l-382 593h-4q2 -23 3.5 -54.5t3 -67t1.5 -72.5v-399h-83v714h104l381 -591h4q-1 16 -2.5 48t-3 70t-1.5 70v403h84v-714zM528 934q-9 -14 -26 -34t-37.5 -41.5t-41 -41t-38.5 -33.5h-58v12q15 19 32.5 45t34.5 53.5t28 49.5h106v-10z" />
    <glyph glyph-name="nacute" unicode="&#x144;" horiz-adv-x="618" 
d="M343 546q96 0 145 -46.5t49 -150.5v-349h-87v343q0 65 -29 97t-91 32q-89 0 -123 -50t-34 -144v-278h-88v536h71l13 -73h5q18 28 44.5 46.5t58.5 27.5t66 9zM457 756q-9 -14 -26 -34t-37.5 -41.5t-41 -41t-38.5 -33.5h-58v12q15 19 32.5 45t34.5 53.5t28 49.5h106v-10z
" />
    <glyph glyph-name="uni0145" unicode="&#x145;" horiz-adv-x="760" 
d="M663 0h-105l-382 593h-4q2 -23 3.5 -54.5t3 -67t1.5 -72.5v-399h-83v714h104l381 -591h4q-1 16 -2.5 48t-3 70t-1.5 70v403h84v-714zM444 -70q-4 -18 -16.5 -45.5t-29 -55.5t-34.5 -50h-48v12q8 17 16.5 43.5t15.5 55t9 49.5h87v-9z" />
    <glyph glyph-name="uni0146" unicode="&#x146;" horiz-adv-x="618" 
d="M343 546q96 0 145 -46.5t49 -150.5v-349h-87v343q0 65 -29 97t-91 32q-89 0 -123 -50t-34 -144v-278h-88v536h71l13 -73h5q18 28 44.5 46.5t58.5 27.5t66 9zM373 -70q-4 -18 -16.5 -45.5t-29 -55.5t-34.5 -50h-48v12q8 17 16.5 43.5t15.5 55t9 49.5h87v-9z" />
    <glyph glyph-name="Ncaron" unicode="&#x147;" horiz-adv-x="760" 
d="M663 0h-105l-382 593h-4q2 -23 3.5 -54.5t3 -67t1.5 -72.5v-399h-83v714h104l381 -591h4q-1 16 -2.5 48t-3 70t-1.5 70v403h84v-714zM334 784q-13 23 -35 49.5t-46 52.5t-42 45v13h60q26 -17 54 -41t53 -51q27 27 55 51t54 41h62v-13q-19 -19 -43.5 -45t-47 -52.5
t-34.5 -49.5h-90z" />
    <glyph glyph-name="ncaron" unicode="&#x148;" horiz-adv-x="618" 
d="M343 546q96 0 145 -46.5t49 -150.5v-349h-87v343q0 65 -29 97t-91 32q-89 0 -123 -50t-34 -144v-278h-88v536h71l13 -73h5q18 28 44.5 46.5t58.5 27.5t66 9zM263 606q-13 23 -35 49.5t-46 52.5t-42 45v13h60q26 -17 54 -41t53 -51q27 27 55 51t54 41h62v-13
q-19 -19 -43.5 -45t-47 -52.5t-34.5 -49.5h-90z" />
    <glyph glyph-name="Eng" unicode="&#x14a;" horiz-adv-x="760" 
d="M475 -190q-25 0 -43.5 3.5t-32.5 9.5v76q16 -4 35 -7t41 -3q26 0 49.5 9.5t39 34t15.5 67.5l-403 593h-4q2 -19 3.5 -54t3 -75t1.5 -77v-387h-83v714h104l381 -572h4q-2 22 -3.5 54.5t-2.5 70.5t-1 75v372h84v-708q0 -67 -23 -110.5t-65 -64.5t-100 -21z" />
    <glyph glyph-name="eng" unicode="&#x14b;" horiz-adv-x="618" 
d="M394 -240q-24 0 -41 3.5t-30 8.5v71q14 -4 28 -7t32 -3q29 0 48 17.5t19 66.5v427q0 65 -29 96.5t-90 31.5q-59 0 -94 -22t-49.5 -65t-14.5 -106v-279h-88v536h71l14 -73h5q18 28 43.5 46.5t57.5 27.5t66 9q66 0 109.5 -20.5t65 -63.5t21.5 -112v-430q0 -50 -15.5 -86
t-47 -55t-81.5 -19z" />
    <glyph glyph-name="Omacron" unicode="&#x14c;" horiz-adv-x="781" 
d="M720 358q0 -83 -21 -150.5t-62.5 -116.5t-103 -75t-142.5 -26q-84 0 -146 26.5t-103 75t-61 116.5t-20 151q0 110 36 192t109.5 128t185.5 46q107 0 180 -45.5t110.5 -128t37.5 -193.5zM156 358q0 -90 25 -155t77.5 -100t132.5 -35q81 0 132.5 35t76.5 100t25 155
q0 135 -56 211.5t-177 76.5q-81 0 -133.5 -34.5t-77.5 -99t-25 -154.5zM539 855v-71h-297v71h297z" />
    <glyph glyph-name="omacron" unicode="&#x14d;" horiz-adv-x="605" 
d="M551 269q0 -67 -17.5 -118.5t-50 -87.5t-79 -54.5t-103.5 -18.5q-53 0 -98 18.5t-78 54.5t-51.5 87.5t-18.5 118.5q0 89 30 150.5t86 94t133 32.5q73 0 128.5 -32.5t87 -94t31.5 -150.5zM146 269q0 -63 16.5 -109.5t51.5 -71.5t89 -25t89 25t51.5 71.5t16.5 109.5
q0 64 -17 109t-51.5 69.5t-89.5 24.5q-82 0 -119 -54t-37 -149zM451 677v-71h-297v71h297z" />
    <glyph glyph-name="Ohungarumlaut" unicode="&#x150;" horiz-adv-x="781" 
d="M720 358q0 -83 -21 -150.5t-62.5 -116.5t-103 -75t-142.5 -26q-84 0 -146 26.5t-103 75t-61 116.5t-20 151q0 110 36 192t109.5 128t185.5 46q107 0 180 -45.5t110.5 -128t37.5 -193.5zM156 358q0 -90 25 -155t77.5 -100t132.5 -35q81 0 132.5 35t76.5 100t25 155
q0 135 -56 211.5t-177 76.5q-81 0 -133.5 -34.5t-77.5 -99t-25 -154.5zM570 934q-8 -13 -23 -33t-34.5 -42t-39 -41.5t-36.5 -33.5h-50v12q14 19 30 45t31.5 53.5t25.5 49.5h96v-10zM394 934q-8 -13 -23 -33t-34.5 -42t-39 -41.5t-36.5 -33.5h-50v12q14 19 30 45t31 53.5
t26 49.5h96v-10z" />
    <glyph glyph-name="ohungarumlaut" unicode="&#x151;" horiz-adv-x="605" 
d="M551 269q0 -67 -17.5 -118.5t-50 -87.5t-79 -54.5t-103.5 -18.5q-53 0 -98 18.5t-78 54.5t-51.5 87.5t-18.5 118.5q0 89 30 150.5t86 94t133 32.5q73 0 128.5 -32.5t87 -94t31.5 -150.5zM146 269q0 -63 16.5 -109.5t51.5 -71.5t89 -25t89 25t51.5 71.5t16.5 109.5
q0 64 -17 109t-51.5 69.5t-89.5 24.5q-82 0 -119 -54t-37 -149zM482 756q-8 -13 -23 -33t-34.5 -42t-39 -41.5t-36.5 -33.5h-50v12q14 19 30 45t31.5 53.5t25.5 49.5h96v-10zM306 756q-8 -13 -23 -33t-34.5 -42t-39 -41.5t-36.5 -33.5h-50v12q14 19 30 45t31 53.5t26 49.5
h96v-10z" />
    <glyph glyph-name="OE" unicode="&#x152;" horiz-adv-x="928" 
d="M386 725q26 0 50 -3t46 -8h386v-79h-287v-223h268v-78h-268v-255h287v-79h-380q-22 -4 -46.5 -7t-50.5 -3q-111 0 -184.5 46t-109.5 129t-36 194t35.5 193t108 127.5t181.5 45.5zM394 646q-61 0 -106.5 -19.5t-74.5 -57t-43.5 -90.5t-14.5 -121q0 -90 25.5 -155
t78.5 -100t134 -35q28 0 53.5 4.5t45.5 12.5v545q-21 8 -45.5 12t-52.5 4z" />
    <glyph glyph-name="oe" unicode="&#x153;" horiz-adv-x="946" 
d="M677 545q68 0 116.5 -30t74.5 -84t26 -127v-53h-356q2 -96 43.5 -141t118.5 -45q53 0 91.5 9.5t78.5 27.5v-77q-40 -18 -79 -26.5t-92 -8.5q-68 0 -120 28t-84 83q-31 -55 -82 -83t-117 -28q-70 0 -124.5 32.5t-86 95t-31.5 151.5q0 88 29.5 149.5t84.5 94t131 32.5
q63 0 113 -28t80 -82q20 36 47.5 60.5t62 37t75.5 12.5zM295 472q-79 0 -114 -51t-35 -152q0 -67 15.5 -113t49 -69.5t86.5 -23.5q52 0 85 23t49 68t16 111q0 70 -16 115.5t-49.5 68.5t-86.5 23zM676 473q-60 0 -95 -39t-41 -113h261q0 46 -13 80t-40.5 53t-71.5 19z" />
    <glyph glyph-name="Racute" unicode="&#x154;" horiz-adv-x="622" 
d="M294 714q89 0 146.5 -22.5t85.5 -67.5t28 -113q0 -57 -21 -95t-53.5 -60.5t-68.5 -35.5l196 -320h-105l-173 295h-142v-295h-90v714h197zM289 636h-102v-265h107q87 0 127 34.5t40 101.5q0 47 -18.5 75t-56.5 41t-97 13zM459 934q-9 -14 -26 -34t-37.5 -41.5t-41 -41
t-38.5 -33.5h-58v12q15 19 32.5 45t34.5 53.5t28 49.5h106v-10z" />
    <glyph glyph-name="racute" unicode="&#x155;" horiz-adv-x="413" 
d="M335 546q15 0 32.5 -1.5t30.5 -4.5l-11 -81q-13 3 -28.5 5t-29.5 2q-31 0 -59 -13t-50 -36.5t-34.5 -56.5t-12.5 -74v-286h-88v536h72l10 -98h4q17 30 41 54.5t55 39t68 14.5zM388 756q-9 -14 -26 -34t-37.5 -41.5t-41 -41t-38.5 -33.5h-58v12q15 19 32.5 45t34.5 53.5
t28 49.5h106v-10z" />
    <glyph glyph-name="uni0156" unicode="&#x156;" horiz-adv-x="622" 
d="M294 714q89 0 146.5 -22.5t85.5 -67.5t28 -113q0 -57 -21 -95t-53.5 -60.5t-68.5 -35.5l196 -320h-105l-173 295h-142v-295h-90v714h197zM289 636h-102v-265h107q87 0 127 34.5t40 101.5q0 47 -18.5 75t-56.5 41t-97 13zM392 -70q-4 -18 -16.5 -45.5t-29 -55.5t-34.5 -50
h-48v12q8 17 16.5 43.5t15.5 55t9 49.5h87v-9z" />
    <glyph glyph-name="uni0157" unicode="&#x157;" horiz-adv-x="413" 
d="M335 546q15 0 32.5 -1.5t30.5 -4.5l-11 -81q-13 3 -28.5 5t-29.5 2q-31 0 -59 -13t-50 -36.5t-34.5 -56.5t-12.5 -74v-286h-88v536h72l10 -98h4q17 30 41 54.5t55 39t68 14.5zM190 -70q-4 -18 -16.5 -45.5t-29 -55.5t-34.5 -50h-48v12q8 17 16.5 43.5t15.5 55t9 49.5h87
v-9z" />
    <glyph glyph-name="Rcaron" unicode="&#x158;" horiz-adv-x="622" 
d="M294 714q89 0 146.5 -22.5t85.5 -67.5t28 -113q0 -57 -21 -95t-53.5 -60.5t-68.5 -35.5l196 -320h-105l-173 295h-142v-295h-90v714h197zM289 636h-102v-265h107q87 0 127 34.5t40 101.5q0 47 -18.5 75t-56.5 41t-97 13zM265 784q-13 23 -35 49.5t-46 52.5t-42 45v13h60
q26 -17 54 -41t53 -51q27 27 55 51t54 41h62v-13q-19 -19 -43.5 -45t-47 -52.5t-34.5 -49.5h-90z" />
    <glyph glyph-name="rcaron" unicode="&#x159;" horiz-adv-x="413" 
d="M335 546q15 0 32.5 -1.5t30.5 -4.5l-11 -81q-13 3 -28.5 5t-29.5 2q-31 0 -59 -13t-50 -36.5t-34.5 -56.5t-12.5 -74v-286h-88v536h72l10 -98h4q17 30 41 54.5t55 39t68 14.5zM194 606q-13 23 -35 49.5t-46 52.5t-42 45v13h60q26 -17 54 -41t53 -51q27 27 55 51t54 41h62
v-13q-19 -19 -43.5 -45t-47 -52.5t-34.5 -49.5h-90z" />
    <glyph glyph-name="Sacute" unicode="&#x15a;" horiz-adv-x="549" 
d="M502 191q0 -64 -31 -108.5t-88.5 -68.5t-135.5 -24q-40 0 -76.5 4t-66.5 11.5t-53 18.5v86q36 -16 89.5 -29t110.5 -13q53 0 89 14t54 40t18 61t-15 59t-51.5 44.5t-101.5 43.5q-61 22 -102 50t-61.5 67.5t-20.5 94.5q0 57 29 97.5t80.5 62.5t118.5 22q59 0 108 -11
t89 -29l-28 -77q-37 16 -80.5 27t-90.5 11q-45 0 -75 -13t-45 -36.5t-15 -54.5q0 -36 15 -60t49 -43t92 -41q63 -23 106.5 -49.5t66 -63.5t22.5 -93zM433 934q-9 -14 -26 -34t-37.5 -41.5t-41 -41t-38.5 -33.5h-58v12q15 19 32.5 45t34.5 53.5t28 49.5h106v-10z" />
    <glyph glyph-name="sacute" unicode="&#x15b;" horiz-adv-x="479" 
d="M434 148q0 -52 -26 -87t-74 -53t-114 -18q-56 0 -96.5 9t-71.5 25v80q32 -16 77.5 -29.5t92.5 -13.5q67 0 97 21.5t30 57.5q0 20 -11 36t-39.5 32t-81.5 36q-52 20 -89 40t-57 48t-20 72q0 68 55.5 105t145.5 37q49 0 91.5 -9.5t79.5 -26.5l-30 -70q-34 14 -71 24t-76 10
q-54 0 -82.5 -17.5t-28.5 -47.5q0 -22 13 -37.5t43.5 -30t81.5 -34.5q51 -19 87 -39t55 -48.5t19 -71.5zM388 756q-9 -14 -26 -34t-37.5 -41.5t-41 -41t-38.5 -33.5h-58v12q15 19 32.5 45t34.5 53.5t28 49.5h106v-10z" />
    <glyph glyph-name="Scedilla" unicode="&#x15e;" horiz-adv-x="549" 
d="M502 191q0 -64 -31 -108.5t-88.5 -68.5t-135.5 -24q-40 0 -76.5 4t-66.5 11.5t-53 18.5v86q36 -16 89.5 -29t110.5 -13q53 0 89 14t54 40t18 61t-15 59t-51.5 44.5t-101.5 43.5q-61 22 -102 50t-61.5 67.5t-20.5 94.5q0 57 29 97.5t80.5 62.5t118.5 22q59 0 108 -11
t89 -29l-28 -77q-37 16 -80.5 27t-90.5 11q-45 0 -75 -13t-45 -36.5t-15 -54.5q0 -36 15 -60t49 -43t92 -41q63 -23 106.5 -49.5t66 -63.5t22.5 -93zM356 -139q0 -48 -37 -74.5t-111 -26.5q-15 0 -28.5 1.5t-21.5 3.5v55q9 -2 24 -3.5t29 -1.5q36 0 55 9.5t19 34.5
q0 26 -26.5 38t-64.5 17l43 86h58l-26 -53q24 -5 44 -15.5t31.5 -27.5t11.5 -43z" />
    <glyph glyph-name="scedilla" unicode="&#x15f;" horiz-adv-x="479" 
d="M434 148q0 -52 -26 -87t-74 -53t-114 -18q-56 0 -96.5 9t-71.5 25v80q32 -16 77.5 -29.5t92.5 -13.5q67 0 97 21.5t30 57.5q0 20 -11 36t-39.5 32t-81.5 36q-52 20 -89 40t-57 48t-20 72q0 68 55.5 105t145.5 37q49 0 91.5 -9.5t79.5 -26.5l-30 -70q-34 14 -71 24t-76 10
q-54 0 -82.5 -17.5t-28.5 -47.5q0 -22 13 -37.5t43.5 -30t81.5 -34.5q51 -19 87 -39t55 -48.5t19 -71.5zM339 -139q0 -48 -37 -74.5t-111 -26.5q-15 0 -28.5 1.5t-21.5 3.5v55q9 -2 24 -3.5t29 -1.5q36 0 55 9.5t19 34.5q0 26 -26.5 38t-64.5 17l43 86h58l-26 -53
q24 -5 44 -15.5t31.5 -27.5t11.5 -43z" />
    <glyph glyph-name="Scaron" unicode="&#x160;" horiz-adv-x="549" 
d="M502 191q0 -64 -31 -108.5t-88.5 -68.5t-135.5 -24q-40 0 -76.5 4t-66.5 11.5t-53 18.5v86q36 -16 89.5 -29t110.5 -13q53 0 89 14t54 40t18 61t-15 59t-51.5 44.5t-101.5 43.5q-61 22 -102 50t-61.5 67.5t-20.5 94.5q0 57 29 97.5t80.5 62.5t118.5 22q59 0 108 -11
t89 -29l-28 -77q-37 16 -80.5 27t-90.5 11q-45 0 -75 -13t-45 -36.5t-15 -54.5q0 -36 15 -60t49 -43t92 -41q63 -23 106.5 -49.5t66 -63.5t22.5 -93zM239 784q-13 23 -35 49.5t-46 52.5t-42 45v13h60q26 -17 54 -41t53 -51q27 27 55 51t54 41h62v-13q-19 -19 -43.5 -45
t-47 -52.5t-34.5 -49.5h-90z" />
    <glyph glyph-name="scaron" unicode="&#x161;" horiz-adv-x="479" 
d="M434 148q0 -52 -26 -87t-74 -53t-114 -18q-56 0 -96.5 9t-71.5 25v80q32 -16 77.5 -29.5t92.5 -13.5q67 0 97 21.5t30 57.5q0 20 -11 36t-39.5 32t-81.5 36q-52 20 -89 40t-57 48t-20 72q0 68 55.5 105t145.5 37q49 0 91.5 -9.5t79.5 -26.5l-30 -70q-34 14 -71 24t-76 10
q-54 0 -82.5 -17.5t-28.5 -47.5q0 -22 13 -37.5t43.5 -30t81.5 -34.5q51 -19 87 -39t55 -48.5t19 -71.5zM194 606q-13 23 -35 49.5t-46 52.5t-42 45v13h60q26 -17 54 -41t53 -51q27 27 55 51t54 41h62v-13q-19 -19 -43.5 -45t-47 -52.5t-34.5 -49.5h-90z" />
    <glyph glyph-name="Tcaron" unicode="&#x164;" horiz-adv-x="556" 
d="M323 0h-90v635h-223v79h535v-79h-222v-635zM232 784q-13 23 -35 49.5t-46 52.5t-42 45v13h60q26 -17 54 -41t53 -51q27 27 55 51t54 41h62v-13q-19 -19 -43.5 -45t-47 -52.5t-34.5 -49.5h-90z" />
    <glyph glyph-name="tcaron" unicode="&#x165;" horiz-adv-x="361" 
d="M264 62q20 0 41 3.5t34 7.5v-67q-14 -7 -40 -11.5t-50 -4.5q-42 0 -77.5 14.5t-57.5 50.5t-22 101v312h-76v42l77 35l35 114h52v-123h155v-68h-155v-310q0 -49 23.5 -72.5t60.5 -23.5zM470 751q-4 -18 -15.5 -45t-26.5 -55.5t-30 -50.5h-48v12q5 14 10 33t9.5 39.5t8 40
t5.5 35.5h87v-9z" />
    <glyph glyph-name="Umacron" unicode="&#x16a;" horiz-adv-x="731" 
d="M640 252q0 -74 -30 -133.5t-91.5 -94t-156.5 -34.5q-133 0 -202.5 72.5t-69.5 191.5v460h90v-463q0 -87 46.5 -135t140.5 -48q65 0 105.5 23.5t59.5 65t19 95.5v462h89v-462zM514 855v-71h-297v71h297z" />
    <glyph glyph-name="umacron" unicode="&#x16b;" horiz-adv-x="618" 
d="M533 536v-536h-72l-13 71h-4q-17 -28 -44 -46t-59 -26.5t-67 -8.5q-64 0 -107.5 20.5t-65.5 63.5t-22 111v351h89v-345q0 -64 29 -96t90 -32q60 0 94.5 22.5t49 66t14.5 105.5v279h88zM457 677v-71h-297v71h297z" />
    <glyph glyph-name="Ubreve" unicode="&#x16c;" horiz-adv-x="731" 
d="M640 252q0 -74 -30 -133.5t-91.5 -94t-156.5 -34.5q-133 0 -202.5 72.5t-69.5 191.5v460h90v-463q0 -87 46.5 -135t140.5 -48q65 0 105.5 23.5t59.5 65t19 95.5v462h89v-462zM521 918q-3 -40 -22.5 -70t-53.5 -47t-82 -17q-74 0 -111.5 36.5t-41.5 97.5h54q5 -41 30 -52
t71 -11q39 0 67.5 12t33.5 51h55z" />
    <glyph glyph-name="ubreve" unicode="&#x16d;" horiz-adv-x="618" 
d="M533 536v-536h-72l-13 71h-4q-17 -28 -44 -46t-59 -26.5t-67 -8.5q-64 0 -107.5 20.5t-65.5 63.5t-22 111v351h89v-345q0 -64 29 -96t90 -32q60 0 94.5 22.5t49 66t14.5 105.5v279h88zM464 740q-3 -40 -22.5 -70t-53.5 -47t-82 -17q-74 0 -111.5 36.5t-41.5 97.5h54
q5 -41 30 -52t71 -11q39 0 67.5 12t33.5 51h55z" />
    <glyph glyph-name="Uring" unicode="&#x16e;" horiz-adv-x="731" 
d="M640 252q0 -74 -30 -133.5t-91.5 -94t-156.5 -34.5q-133 0 -202.5 72.5t-69.5 191.5v460h90v-463q0 -87 46.5 -135t140.5 -48q65 0 105.5 23.5t59.5 65t19 95.5v462h89v-462zM365 784q-49 0 -79 28t-30 78t30 77.5t79 27.5q47 0 79 -27.5t32 -76.5q0 -51 -31.5 -79
t-79.5 -28zM365 834q25 0 40.5 15t15.5 41t-16 41t-40 15t-40 -15t-16 -41t14.5 -41t41.5 -15z" />
    <glyph glyph-name="uring" unicode="&#x16f;" horiz-adv-x="618" 
d="M533 536v-536h-72l-13 71h-4q-17 -28 -44 -46t-59 -26.5t-67 -8.5q-64 0 -107.5 20.5t-65.5 63.5t-22 111v351h89v-345q0 -64 29 -96t90 -32q60 0 94.5 22.5t49 66t14.5 105.5v279h88zM308 606q-49 0 -79 28t-30 78t30 77.5t79 27.5q47 0 79 -27.5t32 -76.5
q0 -51 -31.5 -79t-79.5 -28zM308 656q25 0 40.5 15t15.5 41t-16 41t-40 15t-40 -15t-16 -41t14.5 -41t41.5 -15z" />
    <glyph glyph-name="Uhungarumlaut" unicode="&#x170;" horiz-adv-x="731" 
d="M640 252q0 -74 -30 -133.5t-91.5 -94t-156.5 -34.5q-133 0 -202.5 72.5t-69.5 191.5v460h90v-463q0 -87 46.5 -135t140.5 -48q65 0 105.5 23.5t59.5 65t19 95.5v462h89v-462zM545 934q-8 -13 -23 -33t-34.5 -42t-39 -41.5t-36.5 -33.5h-50v12q14 19 30 45t31.5 53.5
t25.5 49.5h96v-10zM369 934q-8 -13 -23 -33t-34.5 -42t-39 -41.5t-36.5 -33.5h-50v12q14 19 30 45t31 53.5t26 49.5h96v-10z" />
    <glyph glyph-name="uhungarumlaut" unicode="&#x171;" horiz-adv-x="618" 
d="M533 536v-536h-72l-13 71h-4q-17 -28 -44 -46t-59 -26.5t-67 -8.5q-64 0 -107.5 20.5t-65.5 63.5t-22 111v351h89v-345q0 -64 29 -96t90 -32q60 0 94.5 22.5t49 66t14.5 105.5v279h88zM488 756q-8 -13 -23 -33t-34.5 -42t-39 -41.5t-36.5 -33.5h-50v12q14 19 30 45
t31.5 53.5t25.5 49.5h96v-10zM312 756q-8 -13 -23 -33t-34.5 -42t-39 -41.5t-36.5 -33.5h-50v12q14 19 30 45t31 53.5t26 49.5h96v-10z" />
    <glyph glyph-name="Uogonek" unicode="&#x172;" horiz-adv-x="731" 
d="M466 -107q0 -29 12 -41.5t33 -12.5q17 0 28.5 2.5t19.5 3.5v-56q-14 -4 -28 -6.5t-34 -2.5q-53 0 -78 26t-25 77q0 32 16 62.5t39 55.5t43 39l63 11q-30 -34 -50 -61t-29.5 -50t-9.5 -47zM640 252q0 -74 -30 -133.5t-91.5 -94t-156.5 -34.5q-133 0 -202.5 72.5
t-69.5 191.5v460h90v-463q0 -87 46.5 -135t140.5 -48q65 0 105.5 23.5t59.5 65t19 95.5v462h89v-462z" />
    <glyph glyph-name="uogonek" unicode="&#x173;" horiz-adv-x="618" 
d="M533 536v-536h-72l-13 71h-4q-17 -28 -44 -46t-59 -26.5t-67 -8.5q-64 0 -107.5 20.5t-65.5 63.5t-22 111v351h89v-345q0 -64 29 -96t90 -32q60 0 94.5 22.5t49 66t14.5 105.5v279h88zM448 -116q0 -22 12 -33.5t33 -11.5q17 0 28.5 2.5t19.5 3.5v-56q-14 -4 -28 -6.5
t-34 -2.5q-53 0 -78 25t-25 69q0 29 14.5 56t36 49t41.5 36l48 -15q-34 -32 -51 -58.5t-17 -57.5z" />
    <glyph glyph-name="Wcircumflex" unicode="&#x174;" horiz-adv-x="930" 
d="M917 714l-190 -714h-91l-139 468q-6 21 -12 43t-11 42t-8.5 34.5t-4.5 21.5q-1 -7 -3.5 -21.5t-7.5 -34.5t-10.5 -42.5t-12.5 -45.5l-135 -465h-91l-189 714h94l111 -436q6 -23 11 -45.5t9.5 -44t7.5 -41.5t6 -39q3 20 6.5 41t8.5 43.5t11 45.5t12 45l126 431h93
l131 -434q7 -23 13 -46.5t11 -45.5t8.5 -42.5t6.5 -37.5q3 25 8 52.5t12 57.5t15 61l110 435h94zM509 944q12 -22 34.5 -49.5t47 -54t43.5 -45.5v-11h-62q-26 16 -54 39.5t-55 50.5q-27 -27 -54 -50t-53 -40h-60v11q19 20 42.5 46t45.5 53.5t35 49.5h90z" />
    <glyph glyph-name="wcircumflex" unicode="&#x175;" horiz-adv-x="786" 
d="M431 303q-8 28 -15.5 54.5t-13 49.5t-8.5 38h-4q-2 -15 -7.5 -38t-12.5 -50t-16 -55l-96 -301h-100l-147 536h91l74 -286q8 -29 15 -58.5t12.5 -56t7.5 -45.5h4q3 12 7 30t8.5 38t10 40t10.5 36l95 302h96l92 -302q7 -23 14.5 -49t13.5 -50.5t8 -43.5h4q2 17 7.5 42.5
t13 56t15.5 60.5l75 286h90l-149 -536h-103zM437 766q12 -22 34.5 -49.5t47 -54t43.5 -45.5v-11h-62q-26 16 -54 39.5t-55 50.5q-27 -27 -54 -50t-53 -40h-60v11q19 20 42.5 46t45.5 53.5t35 49.5h90z" />
    <glyph glyph-name="Ycircumflex" unicode="&#x176;" horiz-adv-x="566" 
d="M283 363l186 351h97l-238 -437v-277h-90v273l-238 441h98zM327 944q12 -22 34.5 -49.5t47 -54t43.5 -45.5v-11h-62q-26 16 -54 39.5t-55 50.5q-27 -27 -54 -50t-53 -40h-60v11q19 20 42.5 46t45.5 53.5t35 49.5h90z" />
    <glyph glyph-name="ycircumflex" unicode="&#x177;" horiz-adv-x="510" 
d="M1 536h94l116 -305q10 -27 18.5 -52t15.5 -48.5t11 -45.5h4q6 25 19 65.5t27 81.5l109 304h95l-231 -610q-19 -50 -44.5 -87.5t-62 -58t-88.5 -20.5q-24 0 -42 2.5t-31 5.5v70q11 -2 26.5 -4t32.5 -2q31 0 53.5 11.5t38.5 33t27 50.5l28 71zM299 766q12 -22 34.5 -49.5
t47 -54t43.5 -45.5v-11h-62q-26 16 -54 39.5t-55 50.5q-27 -27 -54 -50t-53 -40h-60v11q19 20 42.5 46t45.5 53.5t35 49.5h90z" />
    <glyph glyph-name="Ydieresis" unicode="&#x178;" horiz-adv-x="566" 
d="M283 363l186 351h97l-238 -437v-277h-90v273l-238 441h98zM143 859q0 26 14 37.5t33 11.5t33 -11.5t14 -37.5q0 -25 -14 -37.5t-33 -12.5t-33 12.5t-14 37.5zM331 859q0 26 13.5 37.5t32.5 11.5t33 -11.5t14 -37.5q0 -25 -14 -37.5t-33 -12.5t-32.5 12.5t-13.5 37.5z" />
    <glyph glyph-name="Zacute" unicode="&#x179;" horiz-adv-x="572" 
d="M533 0h-495v68l376 566h-364v80h473v-68l-376 -566h386v-80zM438 934q-9 -14 -26 -34t-37.5 -41.5t-41 -41t-38.5 -33.5h-58v12q15 19 32.5 45t34.5 53.5t28 49.5h106v-10z" />
    <glyph glyph-name="zacute" unicode="&#x17a;" horiz-adv-x="470" 
d="M431 0h-392v58l288 410h-271v68h368v-66l-284 -402h291v-68zM383 756q-9 -14 -26 -34t-37.5 -41.5t-41 -41t-38.5 -33.5h-58v12q15 19 32.5 45t34.5 53.5t28 49.5h106v-10z" />
    <glyph glyph-name="Zdotaccent" unicode="&#x17b;" horiz-adv-x="572" 
d="M533 0h-495v68l376 566h-364v80h473v-68l-376 -566h386v-80zM291 915q20 0 35.5 -13.5t15.5 -42.5q0 -28 -15.5 -42t-35.5 -14q-22 0 -37 14t-15 42q0 29 15 42.5t37 13.5z" />
    <glyph glyph-name="zdotaccent" unicode="&#x17c;" horiz-adv-x="470" 
d="M431 0h-392v58l288 410h-271v68h368v-66l-284 -402h291v-68zM236 737q20 0 35.5 -13.5t15.5 -42.5q0 -28 -15.5 -42t-35.5 -14q-22 0 -37 14t-15 42q0 29 15 42.5t37 13.5z" />
    <glyph glyph-name="Zcaron" unicode="&#x17d;" horiz-adv-x="572" 
d="M533 0h-495v68l376 566h-364v80h473v-68l-376 -566h386v-80zM244 784q-13 23 -35 49.5t-46 52.5t-42 45v13h60q26 -17 54 -41t53 -51q27 27 55 51t54 41h62v-13q-19 -19 -43.5 -45t-47 -52.5t-34.5 -49.5h-90z" />
    <glyph glyph-name="zcaron" unicode="&#x17e;" horiz-adv-x="470" 
d="M431 0h-392v58l288 410h-271v68h368v-66l-284 -402h291v-68zM189 606q-13 23 -35 49.5t-46 52.5t-42 45v13h60q26 -17 54 -41t53 -51q27 27 55 51t54 41h62v-13q-19 -19 -43.5 -45t-47 -52.5t-34.5 -49.5h-90z" />
    <glyph glyph-name="uni0218" unicode="&#x218;" horiz-adv-x="549" 
d="M502 191q0 -64 -31 -108.5t-88.5 -68.5t-135.5 -24q-40 0 -76.5 4t-66.5 11.5t-53 18.5v86q36 -16 89.5 -29t110.5 -13q53 0 89 14t54 40t18 61t-15 59t-51.5 44.5t-101.5 43.5q-61 22 -102 50t-61.5 67.5t-20.5 94.5q0 57 29 97.5t80.5 62.5t118.5 22q59 0 108 -11
t89 -29l-28 -77q-37 16 -80.5 27t-90.5 11q-45 0 -75 -13t-45 -36.5t-15 -54.5q0 -36 15 -60t49 -43t92 -41q63 -23 106.5 -49.5t66 -63.5t22.5 -93zM321 -70q-4 -18 -16.5 -45.5t-29 -55.5t-34.5 -50h-48v12q8 17 16.5 43.5t15.5 55t9 49.5h87v-9z" />
    <glyph glyph-name="uni0219" unicode="&#x219;" horiz-adv-x="479" 
d="M434 148q0 -52 -26 -87t-74 -53t-114 -18q-56 0 -96.5 9t-71.5 25v80q32 -16 77.5 -29.5t92.5 -13.5q67 0 97 21.5t30 57.5q0 20 -11 36t-39.5 32t-81.5 36q-52 20 -89 40t-57 48t-20 72q0 68 55.5 105t145.5 37q49 0 91.5 -9.5t79.5 -26.5l-30 -70q-34 14 -71 24t-76 10
q-54 0 -82.5 -17.5t-28.5 -47.5q0 -22 13 -37.5t43.5 -30t81.5 -34.5q51 -19 87 -39t55 -48.5t19 -71.5zM304 -70q-4 -18 -16.5 -45.5t-29 -55.5t-34.5 -50h-48v12q8 17 16.5 43.5t15.5 55t9 49.5h87v-9z" />
    <glyph glyph-name="uni021A" unicode="&#x21a;" horiz-adv-x="556" 
d="M323 0h-90v635h-223v79h535v-79h-222v-635zM342 -70q-4 -18 -16.5 -45.5t-29 -55.5t-34.5 -50h-48v12q8 17 16.5 43.5t15.5 55t9 49.5h87v-9z" />
    <glyph glyph-name="uni021B" unicode="&#x21b;" horiz-adv-x="361" 
d="M264 62q20 0 41 3.5t34 7.5v-67q-14 -7 -40 -11.5t-50 -4.5q-42 0 -77.5 14.5t-57.5 50.5t-22 101v312h-76v42l77 35l35 114h52v-123h155v-68h-155v-310q0 -49 23.5 -72.5t60.5 -23.5zM278 -70q-4 -18 -16.5 -45.5t-29 -55.5t-34.5 -50h-48v12q8 17 16.5 43.5t15.5 55
t9 49.5h87v-9z" />
    <glyph glyph-name="uni0237" unicode="&#x237;" horiz-adv-x="258" 
d="M22 -240q-25 0 -44 3.5t-33 8.5v71q15 -4 31 -7t35 -3q32 0 53 17.5t21 66.5v619h88v-616q0 -50 -16 -86t-49 -55t-86 -19z" />
    <glyph glyph-name="circumflex" unicode="&#x2c6;" horiz-adv-x="418" 
d="M253 766q12 -22 34.5 -49.5t47 -54t43.5 -45.5v-11h-62q-26 16 -54 39.5t-55 50.5q-27 -27 -54 -50t-53 -40h-60v11q19 20 42.5 46t45.5 53.5t35 49.5h90z" />
    <glyph glyph-name="caron" unicode="&#x2c7;" horiz-adv-x="418" 
d="M163 606q-13 23 -35 49.5t-46 52.5t-42 45v13h60q26 -17 54 -41t53 -51q27 27 55 51t54 41h62v-13q-19 -19 -43.5 -45t-47 -52.5t-34.5 -49.5h-90z" />
    <glyph glyph-name="macronmod" unicode="&#x2c9;" horiz-adv-x="377" 
d="M337 677v-71h-297v71h297z" />
    <glyph glyph-name="breve" unicode="&#x2d8;" horiz-adv-x="391" 
d="M351 740q-3 -40 -22.5 -70t-53.5 -47t-82 -17q-74 0 -111.5 36.5t-41.5 97.5h54q5 -41 30 -52t71 -11q39 0 67.5 12t33.5 51h55z" />
    <glyph glyph-name="dotaccent" unicode="&#x2d9;" horiz-adv-x="183" 
d="M92 737q20 0 35.5 -13.5t15.5 -42.5q0 -28 -15.5 -42t-35.5 -14q-22 0 -37 14t-15 42q0 29 15 42.5t37 13.5z" />
    <glyph glyph-name="ring" unicode="&#x2da;" horiz-adv-x="300" 
d="M149 606q-49 0 -79 28t-30 78t30 77.5t79 27.5q47 0 79 -27.5t32 -76.5q0 -51 -31.5 -79t-79.5 -28zM149 656q25 0 40.5 15t15.5 41t-16 41t-40 15t-40 -15t-16 -41t14.5 -41t41.5 -15z" />
    <glyph glyph-name="ogonek" unicode="&#x2db;" horiz-adv-x="245" 
d="M112 -116q0 -22 12 -33.5t33 -11.5q17 0 28.5 2.5t19.5 3.5v-56q-14 -4 -28 -6.5t-34 -2.5q-53 0 -78 25t-25 69q0 29 14.5 56t36 49t41.5 36l48 -15q-34 -32 -51 -58.5t-17 -57.5z" />
    <glyph glyph-name="tilde" unicode="&#x2dc;" horiz-adv-x="447" 
d="M40 606q3 30 11.5 53.5t22.5 40t33 25.5t43 9q22 0 42.5 -8.5t39.5 -20t36.5 -20t33.5 -8.5q23 0 35.5 14.5t19.5 43.5h50q-6 -58 -34 -93t-75 -35q-21 0 -41 8.5t-39.5 20t-37 20t-34.5 8.5q-24 0 -36 -14.5t-19 -43.5h-51z" />
    <glyph glyph-name="hungarumlaut" unicode="&#x2dd;" horiz-adv-x="439" 
d="M399 756q-8 -13 -23 -33t-34.5 -42t-39 -41.5t-36.5 -33.5h-50v12q14 19 30 45t31.5 53.5t25.5 49.5h96v-10zM223 756q-8 -13 -23 -33t-34.5 -42t-39 -41.5t-36.5 -33.5h-50v12q14 19 30 45t31 53.5t26 49.5h96v-10z" />
    <glyph glyph-name="gravecomb" unicode="&#x300;" 
d="M-388 766q11 -22 27.5 -49.5t35 -53.5t33.5 -45v-12h-59q-17 14 -38 33.5t-41.5 41t-37 41.5t-25.5 34v10h105z" />
    <glyph glyph-name="acutecomb" unicode="&#x301;" 
d="M-124 756q-9 -14 -26 -34t-37.5 -41.5t-41 -41t-38.5 -33.5h-58v12q15 19 32.5 45t34.5 53.5t28 49.5h106v-10z" />
    <glyph glyph-name="uni0302" unicode="&#x302;" 
d="M46 766q12 -22 34.5 -49.5t47 -54t43.5 -45.5v-11h-62q-26 16 -54 39.5t-55 50.5q-27 -27 -54 -50t-53 -40h-60v11q19 20 42.5 46t45.5 53.5t35 49.5h90z" />
    <glyph glyph-name="tildecomb" unicode="&#x303;" 
d="M-491 606q3 30 11.5 53.5t22.5 40t33 25.5t43 9q22 0 42.5 -8.5t39.5 -20t36.5 -20t33.5 -8.5q23 0 35.5 14.5t19.5 43.5h50q-6 -58 -34 -93t-75 -35q-21 0 -41 8.5t-39.5 20t-37 20t-34.5 8.5q-24 0 -36 -14.5t-19 -43.5h-51z" />
    <glyph glyph-name="uni0304" unicode="&#x304;" 
d="M149 677v-71h-297v71h297z" />
    <glyph glyph-name="uni0306" unicode="&#x306;" 
d="M156 740q-3 -40 -22.5 -70t-53.5 -47t-82 -17q-74 0 -111.5 36.5t-41.5 97.5h54q5 -41 30 -52t71 -11q39 0 67.5 12t33.5 51h55z" />
    <glyph glyph-name="uni0307" unicode="&#x307;" 
d="M1 737q20 0 35.5 -13.5t15.5 -42.5q0 -28 -15.5 -42t-35.5 -14q-22 0 -37 14t-15 42q0 29 15 42.5t37 13.5z" />
    <glyph glyph-name="uni0308" unicode="&#x308;" 
d="M-141 681q0 26 14 37.5t33 11.5t33 -11.5t14 -37.5q0 -25 -14 -37.5t-33 -12.5t-33 12.5t-14 37.5zM47 681q0 26 13.5 37.5t32.5 11.5t33 -11.5t14 -37.5q0 -25 -14 -37.5t-33 -12.5t-32.5 12.5t-13.5 37.5z" />
    <glyph glyph-name="uni030A" unicode="&#x30a;" 
d="M1 606q-49 0 -79 28t-30 78t30 77.5t79 27.5q47 0 79 -27.5t32 -76.5q0 -51 -31.5 -79t-79.5 -28zM1 656q25 0 40.5 15t15.5 41t-16 41t-40 15t-40 -15t-16 -41t14.5 -41t41.5 -15z" />
    <glyph glyph-name="uni030B" unicode="&#x30b;" 
d="M233 756q-8 -13 -23 -33t-34.5 -42t-39 -41.5t-36.5 -33.5h-50v12q14 19 30 45t31.5 53.5t25.5 49.5h96v-10zM57 756q-8 -13 -23 -33t-34.5 -42t-39 -41.5t-36.5 -33.5h-50v12q14 19 30 45t31 53.5t26 49.5h96v-10z" />
    <glyph glyph-name="uni030C" unicode="&#x30c;" 
d="M-46 606q-13 23 -35 49.5t-46 52.5t-42 45v13h60q26 -17 54 -41t53 -51q27 27 55 51t54 41h62v-13q-19 -19 -43.5 -45t-47 -52.5t-34.5 -49.5h-90z" />
    <glyph glyph-name="uni0312" unicode="&#x312;" 
d="M-79 480q9 35 23 76t30.5 82t32.5 76h65q-9 -38 -19 -81.5t-18 -86t-13 -77.5h-95z" />
    <glyph glyph-name="uni0326" unicode="&#x326;" 
d="M64 -70q-4 -18 -16.5 -45.5t-29 -55.5t-34.5 -50h-48v12q8 17 16.5 43.5t15.5 55t9 49.5h87v-9z" />
    <glyph glyph-name="uni0327" unicode="&#x327;" 
d="M100 -139q0 -48 -37 -74.5t-111 -26.5q-15 0 -28.5 1.5t-21.5 3.5v55q9 -2 24 -3.5t29 -1.5q36 0 55 9.5t19 34.5q0 26 -26.5 38t-64.5 17l43 86h58l-26 -53q24 -5 44 -15.5t31.5 -27.5t11.5 -43z" />
    <glyph glyph-name="uni0328" unicode="&#x328;" 
d="M-10 -116q0 -22 12 -33.5t33 -11.5q17 0 28.5 2.5t19.5 3.5v-56q-14 -4 -28 -6.5t-34 -2.5q-53 0 -78 25t-25 69q0 29 14.5 56t36 49t41.5 36l48 -15q-34 -32 -51 -58.5t-17 -57.5z" />
    <glyph glyph-name="uni0E81" unicode="&#xe81;" horiz-adv-x="614" 
d="M92 -10q-16 0 -35 3.5t-37 10.5l13 62q9 -3 18 -4.5t16 -1.5q17 0 28.5 9.5t11.5 32.5v264q0 55 -17 89t-38 54l64 49q14 -12 29 -35t24 -46h3q23 31 50.5 48.5t58 25t62.5 7.5q61 0 103 -23t64 -68.5t22 -113.5v-353h-88v347q0 44 -12 74.5t-37.5 47t-68.5 16.5
q-23 0 -46 -6t-42.5 -20t-31 -39t-11.5 -63v-251q0 -55 -27 -85.5t-76 -30.5z" />
    <glyph glyph-name="uni0E82" unicode="&#xe82;" horiz-adv-x="615" 
d="M205 -10q-35 0 -66.5 12.5t-51 39t-19.5 67.5t20 69.5t52.5 47.5t72 32.5t79.5 25.5q47 14 84 26.5t58.5 31.5t21.5 51t-20.5 52.5t-54 30t-74.5 9.5t-75 -10t-54.5 -30.5t-20.5 -52.5q0 -16 5 -26t12 -19l-70 -35q-16 14 -23.5 36t-7.5 45q0 42 24 80t75.5 61.5
t133.5 23.5q81 0 133 -23t77 -61t25 -82q0 -42 -20 -70.5t-53 -48.5t-73 -34t-80 -26q-39 -12 -76.5 -24.5t-61.5 -30.5t-24 -47q0 -21 14.5 -36t41.5 -15q24 0 51 11t56.5 25t60.5 25t63 11q26 0 49.5 -10t38 -33.5t14.5 -64.5v-24h-87v22q0 37 -34 37q-19 0 -42 -10.5
t-49.5 -24t-57.5 -24t-67 -10.5z" />
    <glyph glyph-name="uni0E84" unicode="&#xe84;" horiz-adv-x="614" 
d="M230 -10q-58 0 -94 22t-52 57t-16 73q0 31 10 57t31 44.5t53 26.5v3q-29 10 -50 26.5t-32.5 41t-11.5 56.5q0 74 61 117.5t176 43.5q112 0 169.5 -46.5t57.5 -150.5v-361h-88v369q0 38 -14 63.5t-46 39t-85 13.5q-47 0 -79 -10.5t-48 -30.5t-16 -50q0 -44 33.5 -66.5
t85.5 -22.5h20v-65h-20q-36 0 -62.5 -8.5t-41.5 -28.5t-15 -53q0 -40 22.5 -63.5t65.5 -23.5q18 0 34.5 3.5t27.5 7.5l15 -69q-14 -6 -39.5 -10.5t-51.5 -4.5z" />
    <glyph glyph-name="uni0E86" unicode="&#xe86;" horiz-adv-x="738" 
d="M239 -10q-71 0 -110 44t-39 123v79q0 39 10 66t26 47.5t33 39.5q11 12 19.5 22t14 19.5t6.5 19.5l-3 2q-11 -8 -25.5 -13.5t-32.5 -5.5q-36 0 -59 24.5t-23 69.5v21h78q0 -30 7.5 -43.5t24.5 -13.5q11 0 23 4t22 12l19 41h49v-45q0 -29 -2 -51t-11 -42.5t-30 -47.5
q-15 -19 -28.5 -35t-21.5 -37t-8 -56v-88q0 -41 18.5 -62t55.5 -21q39 0 58.5 25t19.5 74v167h86v-167q0 -49 19.5 -74t58.5 -25q37 0 55.5 21t18.5 62v402h88v-391q0 -79 -39 -123t-110 -44q-44 0 -76.5 17t-55.5 51h-4q-23 -34 -55.5 -51t-76.5 -17z" />
    <glyph glyph-name="uni0E87" unicode="&#xe87;" horiz-adv-x="369" 
d="M113 -174q-46 0 -83 10t-58 20v78q29 -16 61 -25.5t66 -9.5q54 0 77 26t23 75v425q0 29 -20 44.5t-56 15.5q-19 0 -39 -4t-37 -12l-19 64q27 12 57.5 18.5t61.5 6.5q43 0 74.5 -13t48.5 -37t17 -59v-456q0 -85 -45.5 -126t-128.5 -41z" />
    <glyph glyph-name="uni0E88" unicode="&#xe88;" horiz-adv-x="566" 
d="M201 0l-33 210q-4 24 -15.5 33t-31.5 9q-9 0 -18.5 -1.5t-17.5 -3.5l-14 64q18 8 37 11t36 3q41 0 68 -21t37 -84l23 -147q44 0 74 20.5t45 65t15 116.5q0 76 -18 122t-57 67t-102 21q-46 0 -92 -11t-87 -35v78q29 15 79 28t112 13q135 0 194 -73t59 -212q0 -85 -23 -146
t-74.5 -94t-139.5 -33h-56z" />
    <glyph glyph-name="uni0E89" unicode="&#xe89;" horiz-adv-x="595" 
d="M129 -10q-16 0 -34.5 3.5t-35.5 10.5l13 62q7 -2 15 -4t15 -2q26 0 37.5 12.5t11.5 34.5v222h86v-153q0 -54 25 -83.5t68 -29.5q55 0 80 50t25 159q0 111 -46.5 162t-147.5 51q-47 0 -93.5 -11t-88.5 -35v78q29 15 80 28t114 13q135 0 202.5 -71t67.5 -213t-44 -213
t-130 -71q-80 0 -121 59h-37l35 38v-19q0 -38 -25 -58t-72 -20z" />
    <glyph glyph-name="uni0E8A" unicode="&#xe8a;" horiz-adv-x="615" 
d="M455 -174v196q0 20 -9 28.5t-25 8.5q-19 0 -42 -10.5t-49.5 -24t-57.5 -24t-67 -10.5q-35 0 -66.5 12.5t-51 39t-19.5 67.5t20 69.5t52.5 47.5t72 32.5t79.5 25.5q47 14 84 26.5t58.5 31.5t21.5 51t-20.5 52.5t-54 30t-74.5 9.5t-75 -10t-54.5 -30.5t-20.5 -52.5
q0 -16 5 -26t12 -19l-70 -35q-16 14 -23.5 36t-7.5 45q0 42 24 80t75.5 61.5t133.5 23.5q81 0 133 -23t77 -61t25 -82q0 -42 -20 -70.5t-53 -48.5t-73 -34t-80 -26q-39 -12 -76.5 -24.5t-61.5 -30.5t-24 -47q0 -21 14.5 -36t41.5 -15q24 0 51 11t56.5 25t60.5 25t63 11
q26 0 49.5 -10t38 -33.5t14.5 -64.5v-198h-87z" />
    <glyph glyph-name="uni0E8C" unicode="&#xe8c;" horiz-adv-x="646" 
d="M479 -174v196q0 20 -9 28.5t-25 8.5q-20 0 -45 -10.5t-54.5 -24t-63 -24t-71.5 -10.5q-65 0 -101 31t-36 86q0 53 33.5 85.5t88.5 52.5t118 37q64 17 103 34.5t57.5 41t18.5 57.5q0 35 -16.5 52.5t-50.5 17.5q-31 0 -48 -20.5t-17 -61.5v-23h-76v23q0 41 -16.5 61.5
t-48.5 20.5q-34 0 -50.5 -17.5t-16.5 -52.5q0 -24 4.5 -39t11.5 -29l-70 -35q-16 19 -23.5 47t-7.5 58q0 68 35.5 104.5t100.5 36.5q40 0 69 -16.5t48 -51.5h4q20 35 49 51.5t68 16.5q65 0 100.5 -37.5t35.5 -105.5q0 -61 -31.5 -98.5t-83.5 -61t-116 -41.5
q-63 -18 -105 -33.5t-62.5 -32.5t-20.5 -39q0 -23 16.5 -36t45.5 -13q24 0 53 11t60.5 25t64 25t65.5 11q26 0 49.5 -10t38 -33.5t14.5 -64.5v-198h-87z" />
    <glyph glyph-name="uni0E8D" unicode="&#xe8d;" horiz-adv-x="614" 
d="M302 -10q-116 0 -175 45.5t-59 127.5q0 43 14 70t35.5 41.5t44.5 17.5v4q-20 6 -42 20.5t-37 40t-15 63.5q0 35 16 66.5t51.5 51.5t92.5 20q28 0 53 -4.5t40 -11.5l-15 -68q-11 4 -28.5 7.5t-37.5 3.5q-41 0 -62.5 -19.5t-21.5 -54.5q0 -33 17.5 -51t45 -25t56.5 -7h49
v-65h-49q-58 0 -88.5 -22.5t-30.5 -71.5q0 -33 15 -57t47.5 -36.5t84.5 -12.5q49 0 80 12t46 37.5t15 66.5v369h88v-359q0 -70 -26 -113.5t-77.5 -64.5t-126.5 -21z" />
    <glyph glyph-name="uni0E8E" unicode="&#xe8e;" horiz-adv-x="946" 
d="M230 -10q-58 0 -94 22t-52 57t-16 73q0 31 10 57t31 44.5t53 26.5v3q-29 10 -50 26.5t-32.5 41t-11.5 56.5q0 74 60.5 117.5t175.5 43.5q111 0 168.5 -46.5t57.5 -150.5v-160q0 -65 29.5 -101.5t94.5 -36.5q66 0 95 36.5t29 101.5v347h88v-340q0 -102 -49.5 -160
t-162.5 -58q-112 0 -162 58t-50 160v161q0 38 -14 63.5t-45.5 39t-84.5 13.5q-46 0 -78 -10.5t-48 -30.5t-16 -50q0 -44 33.5 -66.5t85.5 -22.5h20v-65h-20q-36 0 -62.5 -8.5t-41.5 -28.5t-15 -53q0 -40 22.5 -63.5t65.5 -23.5q18 0 34.5 3.5t27.5 7.5l15 -69
q-14 -6 -39.5 -10.5t-51.5 -4.5z" />
    <glyph glyph-name="uni0E8F" unicode="&#xe8f;" horiz-adv-x="668" 
d="M206 -10q-66 0 -102 42.5t-36 118.5q0 47 14 76.5t35.5 45t44.5 19.5v4q-20 6 -42 20.5t-37 40t-15 63.5q0 35 16 66.5t51.5 51.5t92.5 20q28 0 53 -4.5t40 -11.5l-15 -68q-11 4 -28.5 7.5t-37.5 3.5q-41 0 -62.5 -19.5t-21.5 -54.5q0 -33 17.5 -51t45 -25t56.5 -7h39
v-65h-39q-58 0 -88.5 -26.5t-30.5 -83.5q0 -45 16.5 -67.5t49.5 -22.5q32 0 49.5 21t17.5 61v23h76v-23q0 -40 18 -61t49 -21q66 0 66 88v397h88v-391q0 -79 -36 -123t-102 -44q-40 0 -69.5 17t-49.5 51h-4q-19 -34 -48.5 -51t-70.5 -17z" />
    <glyph glyph-name="uni0E90" unicode="&#xe90;" horiz-adv-x="614" 
d="M92 -10q-16 0 -35 3.5t-37 10.5l13 62q9 -3 18 -4.5t16 -1.5q17 0 28.5 9.5t11.5 32.5v264q0 55 -17 89t-38 54l64 49q14 -12 29 -35t24 -46h3q23 31 50.5 48.5t58 25t62.5 7.5q61 0 103 -23t64 -68.5t22 -113.5v-527h-88v521q0 44 -12 74.5t-37.5 47t-68.5 16.5
q-23 0 -46 -6t-42.5 -20t-31 -39t-11.5 -63v-251q0 -55 -27 -85.5t-76 -30.5z" />
    <glyph glyph-name="uni0E91" unicode="&#xe91;" horiz-adv-x="738" 
d="M254 -10q-82 0 -123 45t-41 133v68q0 39 10 66t26 47.5t33 39.5q11 12 19.5 22t14 19.5t6.5 19.5l-3 2q-11 -8 -25.5 -13.5t-32.5 -5.5q-36 0 -59 24.5t-23 69.5v21h78q0 -30 7.5 -43.5t24.5 -13.5q11 0 23 4t22 12l19 41h49v-45q0 -29 -2 -51t-11 -42.5t-30 -47.5
q-15 -19 -28.5 -35t-21.5 -37t-8 -56v-69q0 -51 19.5 -76.5t56.5 -25.5q38 0 57 25.5t19 76.5v215q0 89 40.5 133.5t122.5 44.5t122.5 -44.5t40.5 -133.5v-380h-88v383q0 53 -18 77.5t-58 24.5t-58 -24.5t-18 -77.5v-215q0 -88 -40.5 -133t-121.5 -45z" />
    <glyph glyph-name="uni0E92" unicode="&#xe92;" horiz-adv-x="973" 
d="M269 -10q-73 0 -119.5 34.5t-68 99.5t-21.5 155q0 99 22.5 160.5t60.5 90t84 28.5q42 0 64.5 -19.5t32.5 -47.5h4q11 29 37.5 48t69.5 19q64 0 96.5 -45t32.5 -123v-199q0 -41 14 -69.5t41 -43.5t65 -15q59 0 89 35t30 103v347h88v-353q0 -100 -49 -152.5t-143 -52.5
q-38 0 -69 8.5t-55.5 26t-41.5 42.5h-3q-8 -25 -20 -44.5t-27 -32.5l-64 49q28 26 42.5 62.5t14.5 80.5v201q0 47 -13.5 74.5t-44.5 27.5q-29 0 -44 -23t-19 -55h-58q-4 35 -17.5 56.5t-39.5 21.5q-37 0 -64.5 -50t-27.5 -160q0 -71 14 -119t43.5 -72t76.5 -24q14 0 27 2
t25 6l11 -66q-16 -6 -35.5 -9t-40.5 -3z" />
    <glyph glyph-name="uni0E93" unicode="&#xe93;" horiz-adv-x="758" 
d="M229 -10q-84 0 -126.5 71t-42.5 212q0 143 49.5 214t148.5 71q48 0 82 -20.5t49 -51.5h6q16 31 51.5 51.5t85.5 20.5q68 0 107 -41.5t39 -126.5v-390h-88v391q0 50 -19 72t-56 22q-40 0 -60 -24t-20 -73v-388h-86v388q0 49 -21 73t-63 24q-61 0 -89 -50.5t-28 -161.5
t22.5 -162t71.5 -51q11 0 21.5 2t20.5 6l11 -66q-13 -6 -30.5 -9t-35.5 -3z" />
    <glyph glyph-name="uni0E94" unicode="&#xe94;" horiz-adv-x="636" 
d="M269 -10q-73 0 -119.5 34.5t-68 95.5t-21.5 142q0 103 32 168.5t90 96.5t137 31q107 0 171 -53.5t64 -155.5v-349h-88v347q0 65 -36 101.5t-111 36.5q-60 0 -98 -24.5t-55.5 -74t-17.5 -123.5q0 -67 14.5 -112.5t44 -68t75.5 -22.5q14 0 27 2t25 6l11 -66
q-16 -6 -35.5 -9t-40.5 -3z" />
    <glyph glyph-name="uni0E95" unicode="&#xe95;" horiz-adv-x="646" 
d="M269 -10q-73 0 -119.5 34.5t-68 99.5t-21.5 155q0 99 22.5 160.5t60.5 90t84 28.5q42 0 64.5 -19.5t32.5 -47.5h4q11 29 37.5 48t69.5 19q64 0 96.5 -45t32.5 -123v-390h-88v383q0 47 -13.5 74.5t-44.5 27.5q-29 0 -44 -23t-19 -55h-58q-4 35 -17.5 56.5t-39.5 21.5
q-37 0 -64.5 -50t-27.5 -160q0 -71 14 -119t43.5 -72t76.5 -24q14 0 27 2t25 6l11 -66q-16 -6 -35.5 -9t-40.5 -3z" />
    <glyph glyph-name="uni0E96" unicode="&#xe96;" horiz-adv-x="619" 
d="M449 -174v521q0 44 -14 74.5t-42 47t-71 16.5q-22 0 -44.5 -6t-41.5 -20t-30 -39t-11 -63v-251q0 -22 9.5 -32t30.5 -10q8 0 17 1.5t18 4.5l13 -62q-17 -7 -35.5 -10.5t-35.5 -3.5q-49 0 -77 30.5t-28 85.5v256q0 55 -17 89t-38 54l64 49q14 -12 29 -35t24 -46h3
q24 32 52 49.5t57.5 24.5t59.5 7q60 0 104 -23t68 -68.5t24 -113.5v-527h-88z" />
    <glyph glyph-name="uni0E97" unicode="&#xe97;" horiz-adv-x="726" 
d="M242 -10q-89 0 -126.5 49.5t-37.5 128.5v380h88v-383q0 -48 16.5 -75t59.5 -27t59.5 27t16.5 75v215q0 53 15.5 93t51.5 62.5t95 22.5q89 0 126.5 -49.5t37.5 -128.5v-380h-88v383q0 48 -16.5 75t-59.5 27t-59.5 -27t-16.5 -75v-215q0 -52 -16 -92.5t-51.5 -63
t-94.5 -22.5z" />
    <glyph glyph-name="uni0E98" unicode="&#xe98;" horiz-adv-x="644" 
d="M201 -10q-66 0 -102 39t-36 109q0 36 10.5 58.5t23.5 35.5l70 -34q-9 -13 -14 -27t-5 -31q0 -38 17.5 -57.5t51.5 -19.5q32 0 49.5 21t17.5 61v23h76v-23q0 -40 18 -61t49 -21q35 0 52 19t17 58t-23.5 62t-68 38.5t-108.5 31.5t-112 35t-74.5 49.5t-26.5 80.5
q0 58 36 89.5t102 31.5q39 0 71 -10.5t58 -24t49 -24t44 -10.5q17 0 24 9t7 26v24h87v-25q0 -40 -14.5 -63.5t-38 -33.5t-49.5 -10q-31 0 -60.5 10.5t-58 24t-55.5 24t-54 10.5q-30 0 -46.5 -12.5t-16.5 -35.5t13.5 -38.5t48.5 -28.5t99 -30q48 -13 93 -27.5t81 -36.5
t57 -54.5t21 -81.5q0 -71 -36 -110.5t-102 -39.5q-40 0 -69.5 17t-49.5 51h-4q-19 -34 -48.5 -51t-70.5 -17z" />
    <glyph glyph-name="uni0E99" unicode="&#xe99;" horiz-adv-x="614" 
d="M116 -10l-64 49q21 20 38 54t17 89v263q0 23 -9.5 33t-29.5 10q-9 0 -18 -2t-17 -4l-13 62q18 7 38 10.5t38 3.5q50 0 74.5 -30t24.5 -86v-251q0 -40 15 -68.5t43.5 -44t66.5 -15.5q60 0 92 36.5t32 101.5v347h88v-348q0 -66 -23 -113t-67 -72t-106 -25q-52 0 -92.5 19
t-71.5 62h-3q-9 -23 -24 -46.5t-29 -34.5z" />
    <glyph glyph-name="uni0E9A" unicode="&#xe9a;" horiz-adv-x="614" 
d="M307 -10q-121 0 -174 58t-53 160v340h88v-347q0 -65 33 -101.5t106 -36.5q74 0 106.5 36.5t32.5 101.5v347h88v-340q0 -102 -53 -160t-174 -58z" />
    <glyph glyph-name="uni0E9B" unicode="&#xe9b;" horiz-adv-x="616" 
d="M307 -10q-121 0 -174 58t-53 160v340h88v-347q0 -65 33 -101.5t106 -36.5q74 0 106.5 36.5t32.5 101.5v513h88v-506q0 -102 -53 -160t-174 -58z" />
    <glyph glyph-name="uni0E9C" unicode="&#xe9c;" horiz-adv-x="726" 
d="M227 -10q-76 0 -112.5 45t-36.5 122v285q0 56 27.5 86t76.5 30q17 0 35 -3.5t37 -10.5l-13 -62q-9 2 -18.5 4t-17.5 2q-16 0 -27.5 -9.5t-11.5 -33.5v-299q0 -43 18.5 -63t55.5 -20q45 0 61.5 25.5t16.5 73.5v167h86v-167q0 -48 16.5 -73.5t61.5 -25.5q38 0 56 20t18 63
v198q0 42 -16 64t-47 22h-13v61h14q36 0 49 24t13 63v9h88v-9q0 -40 -13.5 -68.5t-47.5 -48.5v-4q34 -16 47.5 -43t13.5 -69v-188q0 -77 -36 -122t-113 -45q-49 0 -80 18.5t-52 49.5h-4q-21 -31 -52 -49.5t-80 -18.5z" />
    <glyph glyph-name="uni0E9D" unicode="&#xe9d;" horiz-adv-x="726" 
d="M227 -10q-76 0 -112.5 45t-36.5 122v285q0 56 27.5 86t76.5 30q17 0 35 -3.5t37 -10.5l-13 -62q-9 2 -18.5 4t-17.5 2q-16 0 -27.5 -9.5t-11.5 -33.5v-299q0 -43 18.5 -63t55.5 -20q45 0 61.5 25.5t16.5 73.5v167h86v-167q0 -48 16.5 -73.5t61.5 -25.5q38 0 56 20t18 63
v568h88v-557q0 -77 -36 -122t-113 -45q-49 0 -80 18.5t-52 49.5h-4q-21 -31 -52 -49.5t-80 -18.5z" />
    <glyph glyph-name="uni0E9E" unicode="&#xe9e;" horiz-adv-x="732" 
d="M226 -10q-67 0 -106.5 41.5t-39.5 126.5v390h88v-391q0 -49 19 -71.5t56 -22.5q40 0 60 24t20 73v388h86v-388q0 -49 20 -73t60 -24q37 0 56 22.5t19 71.5v391h88v-390q0 -85 -39 -126.5t-107 -41.5q-50 0 -85.5 20.5t-51.5 51.5h-6q-16 -31 -51.5 -51.5t-85.5 -20.5z
" />
    <glyph glyph-name="uni0E9F" unicode="&#xe9f;" horiz-adv-x="734" 
d="M226 -10q-67 0 -106.5 41.5t-39.5 126.5v390h88v-391q0 -49 19 -71.5t56 -22.5q40 0 60 24t20 73v388h86v-388q0 -49 20 -73t60 -24q37 0 56 22.5t19 71.5v557h88v-556q0 -85 -39 -126.5t-107 -41.5q-50 0 -85.5 20.5t-51.5 51.5h-6q-16 -31 -51.5 -51.5t-85.5 -20.5z
" />
    <glyph glyph-name="uni0EA0" unicode="&#xea0;" horiz-adv-x="760" 
d="M238 -10q-16 0 -35 3.5t-37 10.5l13 62q9 -3 18 -4.5t16 -1.5q17 0 28.5 9.5t11.5 32.5v313q0 33 -17.5 51.5t-49.5 18.5q-31 0 -49 -18.5t-18 -51.5v-23h-84v25q0 64 41 102.5t108 38.5q41 0 79.5 -18t57.5 -54h3q22 28 48.5 43.5t56 22t60.5 6.5q61 0 103 -23t64 -68.5
t22 -113.5v-353h-88v347q0 44 -12 74.5t-37.5 47t-68.5 16.5q-23 0 -46 -6t-42.5 -20t-31 -39t-11.5 -63v-251q0 -55 -27 -85.5t-76 -30.5z" />
    <glyph glyph-name="uni0EA1" unicode="&#xea1;" horiz-adv-x="614" 
d="M95 -10q-20 0 -39 4t-36 10l13 62q9 -3 18 -4.5t16 -1.5q17 0 28.5 9.5t11.5 32.5v446h88v-357q0 -51 19 -78.5t47.5 -38.5t58.5 -11q64 0 94 36.5t30 101.5v347h88v-353q0 -68 -23 -113.5t-67 -68.5t-107 -23q-45 0 -81.5 13.5t-67.5 45.5h-37l35 37v-24
q0 -35 -23.5 -53.5t-65.5 -18.5z" />
    <glyph glyph-name="uni0EA2" unicode="&#xea2;" horiz-adv-x="619" 
d="M304 -10q-116 0 -176 45.5t-60 127.5q0 44 14.5 71t36.5 41t43 17v4q-20 6 -42 20.5t-37 40t-15 63.5q0 35 16 66.5t51.5 51.5t92.5 20q28 0 53 -4.5t40 -11.5l-15 -68q-11 4 -28.5 7.5t-37.5 3.5q-41 0 -62.5 -19.5t-21.5 -54.5q0 -33 17.5 -51t45 -25t56.5 -7h49v-65
h-49q-58 0 -88.5 -22.5t-30.5 -71.5q0 -32 15 -56t47.5 -37t86.5 -13q49 0 81 12t47.5 37.5t15.5 66.5v535h88v-525q0 -70 -27 -113.5t-79 -64.5t-127 -21z" />
    <glyph glyph-name="uni0EA3" unicode="&#xea3;" horiz-adv-x="615" 
d="M306 -10q-84 0 -136.5 23t-77 60.5t-24.5 78.5q0 32 11 51t21 29l68 -33q-7 -7 -11 -19t-4 -28q0 -35 21 -54.5t55.5 -27t72.5 -7.5q45 0 80 9t55 30t20 57t-20 57t-56.5 34t-86.5 25q-42 10 -82 20t-72.5 26t-52 41.5t-19.5 67.5q0 47 27 75t76 40.5t116 12.5
q59 0 120.5 -9.5t114.5 -31.5v-72q-61 23 -116.5 31.5t-114.5 8.5q-68 0 -103 -11.5t-35 -43.5q0 -25 20 -39.5t56.5 -24t85.5 -21.5q40 -9 80 -22t73.5 -33t53.5 -51t20 -78q0 -73 -57 -122t-179 -49z" />
    <glyph glyph-name="uni0EA5" unicode="&#xea5;" horiz-adv-x="626" 
d="M181 -10q-66 0 -97 39.5t-31 106.5q0 48 16 86t50 59.5t88 21.5q59 0 90.5 -26t45.5 -70l39 -123q6 -19 16 -26.5t24 -7.5q17 0 25.5 10t8.5 30v265q0 44 -21 72.5t-59.5 43t-91.5 14.5q-46 0 -102.5 -11t-97.5 -32v75q19 10 53 19.5t75.5 15.5t83.5 6q71 0 127 -21
t88.5 -64.5t32.5 -111.5v-254q0 -61 -33.5 -89t-89.5 -28q-49 0 -75 21t-40 62l-37 115q-7 23 -23.5 34.5t-41.5 11.5q-33 0 -52.5 -22.5t-19.5 -72.5q0 -43 15.5 -63.5t48.5 -20.5q9 0 17.5 1.5t15.5 3.5l13 -60q-10 -4 -25.5 -7t-35.5 -3z" />
    <glyph glyph-name="uni0EA7" unicode="&#xea7;" horiz-adv-x="586" 
d="M267 -10q-66 0 -117.5 19.5t-81 57t-29.5 90.5q0 19 3.5 32t8.5 24l82 -23q-3 -7 -5 -15t-2 -19q0 -42 35 -67.5t100 -25.5q78 0 122 46t44 163q0 85 -23 131t-64 64t-96 18q-52 0 -97.5 -12t-87.5 -34v78q33 17 82 29t110 12q56 0 104 -13.5t84 -45t56 -86.5t20 -139
q0 -108 -33 -170t-89 -88t-126 -26z" />
    <glyph glyph-name="uni0EA8" unicode="&#xea8;" horiz-adv-x="614" 
d="M230 -10q-58 0 -94 22t-52 57t-16 73q0 31 10 57t31 44.5t53 26.5v3q-29 10 -50 26.5t-32.5 41t-11.5 56.5q0 74 61 117.5t176 43.5q112 0 169.5 -46.5t57.5 -150.5v-361h-88v369q0 38 -14 63.5t-46 39t-85 13.5q-47 0 -79 -10.5t-48 -30.5t-16 -50q0 -44 25 -66.5
t64 -22.5h19v-65h-19q-27 0 -47 -8.5t-31 -28.5t-11 -53q0 -40 22.5 -63.5t65.5 -23.5q18 0 34.5 3.5t27.5 7.5l15 -69q-14 -6 -39.5 -10.5t-51.5 -4.5zM407 210q-57 0 -82 25.5t-25 57.5q0 15 4 32.5t11 28.5l68 -13q-2 -4 -3.5 -13.5t-1.5 -16.5q0 -14 8 -23.5t27 -9.5
h195v-68h-201z" />
    <glyph glyph-name="uni0EA9" unicode="&#xea9;" horiz-adv-x="616" 
d="M307 -10q-121 0 -174 58t-53 160v340h88v-347q0 -65 33 -101.5t106 -36.5q74 0 106.5 36.5t32.5 101.5v347h88v-340q0 -102 -53 -160t-174 -58zM379 240q-57 0 -82 25.5t-25 57.5q0 15 4 32.5t11 28.5l68 -13q-2 -4 -3.5 -13.5t-1.5 -16.5q0 -14 8 -23.5t27 -9.5h225v-68
h-231z" />
    <glyph glyph-name="uni0EAA" unicode="&#xeaa;" horiz-adv-x="635" 
d="M192 -10q-70 0 -101 42t-31 101q0 39 14 73t47 55.5t90 21.5q62 0 97.5 -26t48.5 -70l32 -103q6 -19 17 -26.5t25 -7.5q17 0 25.5 10t8.5 30v257q0 52 -28.5 84t-75 47t-100.5 15q-50 0 -84.5 -12t-34.5 -37q0 -17 16.5 -27t43 -14.5t55.5 -4.5q77 0 127.5 24.5t75 61.5
t24.5 74v7h78v-7q0 -57 -37.5 -108.5t-105.5 -84t-158 -32.5q-53 0 -97 12.5t-70 37.5t-26 62q0 47 49 80t154 33q97 0 159.5 -28.5t92.5 -76.5t30 -106v-240q0 -61 -33.5 -89t-89.5 -28q-49 0 -76.5 21t-40.5 62l-29 95q-7 26 -26.5 38t-47.5 12q-34 0 -53 -19.5t-19 -64.5
q0 -38 15.5 -58.5t49.5 -20.5q9 0 16.5 1.5t15.5 3.5l14 -60q-11 -4 -25.5 -7t-31.5 -3z" />
    <glyph glyph-name="uni0EAB" unicode="&#xeab;" horiz-adv-x="726" 
d="M242 -10q-89 0 -126.5 46.5t-37.5 121.5v390h88v-396q0 -44 19 -66.5t57 -22.5q76 0 76 89v273q0 27 -9.5 48t-35.5 40l62 45q17 -8 31 -23t23 -33h4q21 23 53 39.5t72 16.5q39 0 67.5 -17t43.5 -48.5t15 -76.5v-416h-88v402q0 40 -18 61.5t-55 21.5q-28 0 -45.5 -12
t-25.5 -32t-8 -46v-237q0 -75 -36.5 -121.5t-125.5 -46.5z" />
    <glyph glyph-name="uni0EAC" unicode="&#xeac;" horiz-adv-x="594" 
d="M297 -10q-111 0 -174 45t-63 124q0 80 62.5 124.5t174.5 44.5v-45q-67 0 -121 21t-85 57t-31 81q0 56 36 86t102 30q39 0 70 -10.5t56.5 -24t48 -24t43.5 -10.5q17 0 24 9t7 26v24h87v-25q0 -40 -14.5 -63.5t-38 -33.5t-49.5 -10q-32 0 -62 10.5t-58 24t-55.5 24
t-55.5 10.5t-42 -13t-14 -39q0 -27 19.5 -48.5t54 -34t78.5 -12.5h19v-65h-19q-76 0 -114 -26t-38 -79q0 -52 39 -78.5t113 -26.5t113 23t39 66q0 14 -4 25t-13 21l70 34q13 -12 22.5 -31t9.5 -50q0 -76 -63 -118.5t-174 -42.5z" />
    <glyph glyph-name="uni0EAD" unicode="&#xead;" horiz-adv-x="620" 
d="M306 -10q-68 0 -122 20.5t-85 58t-31 88.5q0 21 5 33.5t12 22.5l72 -21q-4 -9 -6 -17t-2 -16q0 -29 22 -51t58 -33.5t77 -11.5q56 0 93 22.5t56 68.5t19 115q0 107 -45 161.5t-137 54.5q-61 0 -102.5 -24t-41.5 -68q0 -40 36.5 -63t100.5 -23q29 0 61.5 5t65.5 17.5
t61 32.5l33 -58q-31 -22 -68 -37t-76.5 -22t-78.5 -7q-101 0 -158 43.5t-57 113.5q0 46 25 83t75 58.5t123 21.5q76 0 137 -27.5t97.5 -91t36.5 -170.5q0 -103 -34 -164.5t-92 -88t-130 -26.5z" />
    <glyph glyph-name="uni0EAE" unicode="&#xeae;" horiz-adv-x="615" 
d="M302 -10q-78 0 -130 21t-78 57.5t-26 82.5q0 31 9.5 50t22.5 31l70 -34q-9 -10 -13 -21t-4 -25q0 -23 9 -39.5t27.5 -27.5t46 -16.5t64.5 -5.5q52 0 86.5 10.5t52.5 31t18 51.5t-18.5 48.5t-56.5 31t-99 30.5q-59 17 -108 36t-78 50.5t-29 84.5q0 44 19.5 70.5t51 38.5
t67.5 12q39 0 70 -10.5t56.5 -24t48 -24t43.5 -10.5q17 0 24 9t7 26v24h87v-25q0 -40 -14.5 -63.5t-38 -33.5t-49.5 -10q-32 0 -62 10.5t-58.5 24t-56 24t-55.5 10.5q-27 0 -41 -12.5t-14 -35.5q0 -28 19 -45.5t53.5 -29.5t80.5 -25q44 -12 86 -26t76 -33.5t54 -48.5t20 -72
q0 -45 -25.5 -83t-78.5 -61t-136 -23z" />
    <glyph glyph-name="uni0EAF" unicode="&#xeaf;" horiz-adv-x="578" 
d="M408 0v402h-5q-18 -19 -55 -34t-95 -15q-87 0 -135.5 43t-48.5 135v17h88v-18q0 -56 28.5 -80t83.5 -24q62 0 105 28t43 85v9h79v-548h-88z" />
    <glyph glyph-name="uni0EB0" unicode="&#xeb0;" horiz-adv-x="372" 
d="M148 359q-62 0 -88 26.5t-26 59.5q0 10 2 20.5t5.5 20t8.5 16.5h77q-4 -7 -6.5 -17.5t-2.5 -21.5q0 -13 7 -23t25 -10h163v-71h-165zM148 44q-62 0 -88 26.5t-26 59.5q0 10 2 20.5t5.5 20.5t8.5 17h77q-4 -8 -6.5 -18t-2.5 -21q0 -14 7 -23.5t25 -9.5h163v-72h-165z" />
    <glyph glyph-name="uni0EB1" unicode="&#xeb1;" 
d="M155 637q-54 0 -79.5 20t-25.5 62q0 19 4.5 35.5t11.5 27.5h76q-4 -10 -7 -19.5t-3 -18.5q0 -16 11 -27t35 -11h263v-69h-286z" />
    <glyph glyph-name="uni0EB2" unicode="&#xeb2;" horiz-adv-x="324" 
d="M154 0v425q0 35 -15 49t-47 14q-24 0 -43.5 -5.5t-33.5 -11.5l-14 65q20 9 50 15.5t60 6.5q57 0 94 -28.5t37 -91.5v-438h-88z" />
    <glyph glyph-name="uni0EB3" unicode="&#xeb3;" horiz-adv-x="324" 
d="M154 0v425q0 35 -15 49t-47 14q-24 0 -43.5 -5.5t-33.5 -11.5l-14 65q20 9 50 15.5t60 6.5q57 0 94 -28.5t37 -91.5v-438h-88zM-140 621q-48 0 -77 27.5t-29 72.5t29 72.5t77 27.5q49 0 78.5 -27.5t29.5 -72.5t-29.5 -72.5t-78.5 -27.5zM-140 675q22 0 35 13t13 34
q0 20 -13 32.5t-34 12.5q-22 0 -35 -12.5t-13 -33.5t13 -33.5t34 -12.5z" />
    <glyph glyph-name="uni0EB4" unicode="&#xeb4;" 
d="M189 627q-35 0 -67 12t-52 35t-20 57q0 42 30.5 70.5t80 43t106.5 14.5t106.5 -14.5t80 -43t30.5 -70.5q0 -34 -20.5 -57.5t-52.5 -35t-66 -11.5l-14 51q2 0 13 2.5t24 8t23 16t10 28.5q0 29 -34 46.5t-100 17.5t-100.5 -17.5t-34.5 -46.5q0 -18 10 -28.5t23.5 -16
t24.5 -8t12 -2.5z" />
    <glyph glyph-name="uni0EB5" unicode="&#xeb5;" 
d="M189 627q-35 0 -67 12t-52 35t-20 57q0 42 30.5 70.5t80 43t105.5 14.5q59 0 108.5 -15t79.5 -43t30 -66q0 -16 -6.5 -27.5t-22.5 -22.5v-2q9 3 23.5 4t23.5 1h34v-61h-191l-14 51q2 0 13 2.5t24 8t23 16t10 28.5q0 29 -34 46.5t-100 17.5t-100.5 -17.5t-34.5 -46.5
q0 -18 10 -28.5t23.5 -16t24.5 -8t12 -2.5z" />
    <glyph glyph-name="uni0EB6" unicode="&#xeb6;" 
d="M189 627q-35 0 -67 12t-52 35t-20 57q0 42 30.5 70.5t80 43t106.5 14.5t106.5 -14.5t80 -43t30.5 -70.5q0 -34 -20.5 -57.5t-52.5 -35t-66 -11.5l-14 51q2 0 13 2.5t24 8t23 16t10 28.5q0 29 -34 46.5t-100 17.5t-100.5 -17.5t-34.5 -46.5q0 -18 10 -28.5t23.5 -16
t24.5 -8t12 -2.5zM267 686q-19 0 -31 11.5t-12 30.5q0 20 12 31.5t31 11.5t30.5 -11.5t11.5 -31.5q0 -19 -11.5 -30.5t-30.5 -11.5z" />
    <glyph glyph-name="uni0EB7" unicode="&#xeb7;" 
d="M189 627q-35 0 -67 12t-52 35t-20 57q0 42 30.5 70.5t80 43t105.5 14.5q59 0 108.5 -15t79.5 -43t30 -66q0 -16 -6.5 -27.5t-22.5 -22.5v-2q9 3 23.5 4t23.5 1h34v-61h-191l-14 51q2 0 13 2.5t24 8t23 16t10 28.5q0 29 -34 46.5t-100 17.5t-100.5 -17.5t-34.5 -46.5
q0 -18 10 -28.5t23.5 -16t24.5 -8t12 -2.5zM267 686q-19 0 -31 11.5t-12 30.5q0 20 12 31.5t31 11.5t30.5 -11.5t11.5 -31.5q0 -19 -11.5 -30.5t-30.5 -11.5z" />
    <glyph glyph-name="uni0EB8" unicode="&#xeb8;" 
d="M121 -277v102q0 18 -7 25t-20 7q-8 0 -16 -2t-14 -4l-14 56q11 5 30.5 9t37.5 4q32 0 54 -18.5t22 -72.5v-106h-73z" />
    <glyph glyph-name="uni0EB9" unicode="&#xeb9;" 
d="M217 -281q-64 0 -96.5 25.5t-32.5 72.5v17q0 12 -3.5 17t-13.5 5q-4 0 -7.5 -0.5t-7.5 -1.5l-6 60q13 3 26 4.5t23 1.5q35 0 50.5 -16t15.5 -45v-34q0 -19 11 -32t42 -13q30 0 41.5 12.5t11.5 32.5v92h78v-94q0 -49 -32 -76.5t-100 -27.5z" />
    <glyph glyph-name="uni0EBA" unicode="&#xeba;" horiz-adv-x="210" 
d="M105 -179q-26 0 -40.5 14.5t-14.5 40.5t14.5 40.5t40.5 14.5t40.5 -14.5t14.5 -40.5t-14.5 -40.5t-40.5 -14.5z" />
    <glyph glyph-name="uni0EBB" unicode="&#xebb;" 
d="M66 637q-7 11 -11.5 27.5t-4.5 35.5q0 42 25.5 62t79.5 20h288v-69h-265q-24 0 -35 -10.5t-11 -27.5q0 -9 3 -18.5t7 -19.5h-76z" />
    <glyph glyph-name="uni0EBC" unicode="&#xebc;" 
d="M65 -210q-7 11 -11 24t-4 27q0 39 26 59t74 20q37 0 66 -9t55 -18t55 -9q21 0 42.5 6t40.5 18v-68q-39 -24 -85 -24q-31 0 -58 9t-52 18t-49 9q-30 0 -30 -26q0 -8 2.5 -18t7.5 -18h-80z" />
    <glyph glyph-name="uni0EBD" unicode="&#xebd;" horiz-adv-x="574" 
d="M267 -251q-64 0 -115.5 19.5t-81.5 57t-30 92.5q0 22 6 40.5t20 35.5l76 -36q-7 -9 -11 -19t-4 -25q0 -28 15.5 -48.5t46 -32t73.5 -11.5q68 0 109 28t41 80v187q0 27 -10 49t-30.5 39.5t-53 32.5t-77.5 28q-44 13 -83 26t-68.5 31.5t-46.5 45.5t-17 67q0 44 19.5 71
t50.5 39t68 12q39 0 70 -10.5t56.5 -24t48 -24t43.5 -10.5q17 0 24 9t7 26v24h87v-25q0 -40 -14.5 -63.5t-38 -33.5t-49.5 -10q-32 0 -62 10.5t-58.5 24t-56 24t-55.5 10.5q-27 0 -41 -12.5t-14 -35.5q0 -30 21 -47.5t55.5 -28.5t76.5 -24q50 -15 93 -33t75 -42.5t50 -58.5
t18 -81v-192q0 -47 -25.5 -88.5t-77 -67t-130.5 -25.5z" />
    <glyph glyph-name="uni0EC0" unicode="&#xec0;" horiz-adv-x="281" 
d="M191 -10q-45 0 -79 24.5t-34 85.5v448h88v-443q0 -22 10 -32.5t35 -10.5q10 0 19.5 1.5t17.5 4.5l13 -64q-19 -8 -37.5 -11t-32.5 -3z" />
    <glyph glyph-name="uni0EC1" unicode="&#xec1;" horiz-adv-x="515" 
d="M425 -10q-45 0 -79 24.5t-34 85.5v448h88v-443q0 -22 10 -32.5t35 -10.5q10 0 19.5 1.5t17.5 4.5l13 -64q-19 -8 -37.5 -11t-32.5 -3zM191 -10q-45 0 -79 24.5t-34 85.5v448h88v-443q0 -22 10 -32.5t35 -10.5q10 0 19.5 1.5t17.5 4.5l13 -64q-19 -8 -37.5 -11t-32.5 -3z
" />
    <glyph glyph-name="uni0EC2" unicode="&#xec2;" horiz-adv-x="280" 
d="M191 -10q-45 0 -79 24.5t-34 85.5v432q0 29 -11.5 48.5t-28 35l-33 31t-28 35.5t-11.5 50q0 47 34 78t104 31h156v-68h-154q-24 0 -36 -9.5t-16 -21t-4 -18.5q0 -16 11.5 -29.5t29 -28.5t35 -34t29 -45t11.5 -62v-420q0 -22 10 -32.5t35 -10.5q10 0 19.5 1.5t17.5 4.5
l13 -64q-19 -8 -37.5 -11t-32.5 -3z" />
    <glyph glyph-name="uni0EC3" unicode="&#xec3;" horiz-adv-x="280" 
d="M191 -10q-45 0 -79 24.5t-34 85.5v421q0 33 11 57.5t27.5 43.5t32.5 35t27 32t11 35q0 24 -18.5 39t-50.5 15q-31 0 -50 -15t-19 -42v-22h-84v22q0 45 22.5 73.5t58 42.5t72.5 14q38 0 73 -14t57.5 -42.5t22.5 -71.5q0 -30 -10.5 -50t-26 -35.5t-31.5 -30.5t-26.5 -33.5
t-10.5 -45.5v-423q0 -22 10 -32.5t35 -10.5q10 0 19.5 1.5t17.5 4.5l13 -64q-19 -8 -37.5 -11t-32.5 -3z" />
    <glyph glyph-name="uni0EC4" unicode="&#xec4;" horiz-adv-x="324" 
d="M229 -10q-45 0 -79 24.5t-34 85.5v436q0 70 15 117.5t37.5 75.5t46.5 39l-1 5h-236l28 68h298v-89q-44 -17 -72 -63t-28 -136v-448q0 -22 10 -32.5t35 -10.5q10 0 19.5 1.5t17.5 4.5l13 -64q-19 -8 -37.5 -11t-32.5 -3z" />
    <glyph glyph-name="uni0EC6" unicode="&#xec6;" horiz-adv-x="627" 
d="M439 -174v602q0 26 -11 41.5t-37 15.5q-29 0 -49.5 -18t-35.5 -42h-31q-15 26 -34.5 43t-50.5 17q-28 0 -43 -16t-15 -51q0 -38 17 -53t43 -15q9 0 18 1.5t18 4.5l13 -62q-14 -7 -32.5 -11t-37.5 -4q-35 0 -64 15.5t-46 47t-17 78.5q0 67 34.5 102.5t91.5 35.5
q42 0 72 -17.5t47 -44.5h3q19 29 49.5 45.5t68.5 16.5q51 0 84 -30.5t33 -89.5v-612h-88z" />
    <glyph glyph-name="uni0EC8" unicode="&#xec8;" 
d="M50 637v174h88v-174h-88z" />
    <glyph glyph-name="uni0EC9" unicode="&#xec9;" 
d="M59 637v41q27 4 46 13t29 23.5t10 31.5q0 18 -10.5 28t-29.5 10q-10 0 -19 -2.5t-17 -7.5l-18 46q14 10 35 15t43 5q44 0 68 -20t24 -55q0 -19 -7 -35.5t-19 -25.5h192v-67h-327z" />
    <glyph glyph-name="uni0ECA" unicode="&#xeca;" 
d="M139 634q-42 0 -65.5 24.5t-23.5 67.5q0 44 25.5 69t71.5 25l70 -37l65 37q48 0 75 -19t27 -53q0 -13 -4 -26.5t-12 -24.5h86v-60h-178v38q17 2 26.5 15.5t9.5 32.5q0 18 -8.5 28.5t-22.5 12.5l-58 -28h-13l-59 28q-13 -1 -22.5 -10.5t-9.5 -29.5q0 -19 9.5 -31t25.5 -12
q4 0 8 1l8 2l7 -42q-6 -4 -16 -6t-22 -2z" />
    <glyph glyph-name="uni0ECB" unicode="&#xecb;" 
d="M137 637v70h-87v61h87v70h84v-70h87v-61h-87v-70h-84z" />
    <glyph glyph-name="uni0ECC" unicode="&#xecc;" 
d="M70 627q-10 13 -15 32.5t-5 38.5q0 47 27 71.5t76 24.5h168v-69h-139q-21 0 -33 -12t-12 -33q0 -11 3.5 -22t9.5 -20z" />
    <glyph glyph-name="uni0ECD" unicode="&#xecd;" 
d="M156 621q-48 0 -77 27.5t-29 72.5t29 72.5t77 27.5q49 0 78.5 -27.5t29.5 -72.5t-29.5 -72.5t-78.5 -27.5zM156 675q22 0 35 13t13 34q0 20 -13 32.5t-34 12.5q-22 0 -35 -12.5t-13 -33.5t13 -33.5t34 -12.5z" />
    <glyph glyph-name="yamakkanlao" unicode="&#xece;" 
d="M50 628v14l107 118h44l72 -75h-18l72 75h44l107 -118v-14h-70l-70 75l28 10l-75 -75h-54l-75 75l28 -10l-70 -75h-70z" />
    <glyph glyph-name="uni0ED0" unicode="&#xed0;" horiz-adv-x="616" 
d="M308 -10q-73 0 -126.5 28.5t-82.5 91.5t-29 164q0 102 29 164.5t82.5 91t126.5 28.5q74 0 127 -28.5t82 -91t29 -164.5q0 -101 -29 -164t-82 -91.5t-127 -28.5zM308 63q80 0 115 52t35 159t-35 159t-115 52q-79 0 -114.5 -52t-35.5 -159t35.5 -159t114.5 -52z" />
    <glyph glyph-name="uni0ED1" unicode="&#xed1;" horiz-adv-x="586" 
d="M273 -10q-52 0 -96.5 11.5t-78.5 29.5v77q38 -19 78 -32t88 -13q87 0 124.5 50.5t37.5 165.5q0 110 -35 158t-116 48q-61 0 -90 -25t-29 -78q0 -49 26 -71.5t81 -22.5q11 0 22 0.5t16 1.5l-12 -71q-4 -1 -12.5 -2t-23.5 -1q-57 0 -98.5 20.5t-64 58.5t-22.5 89
q0 82 56.5 128t156.5 46q118 0 175.5 -69t57.5 -212q0 -145 -59.5 -216t-181.5 -71z" />
    <glyph glyph-name="uni0ED2" unicode="&#xed2;" horiz-adv-x="583" 
d="M295 -10q-69 0 -121.5 27t-82.5 86t-30 153q0 90 25.5 149t66 97.5t85.5 66.5q27 17 56 33t54.5 32.5t41 34t15.5 37.5v26h78v-24q0 -31 -15.5 -54t-42 -43.5t-61.5 -42t-74 -49.5q-49 -35 -80.5 -69t-46 -78t-14.5 -109q0 -111 39.5 -155.5t111.5 -44.5q68 0 96.5 31
t28.5 81t-28.5 72.5t-90.5 22.5h-9.5t-9.5 -1l19 74q96 0 151.5 -41t55.5 -126q0 -61 -28.5 -102.5t-77.5 -62.5t-112 -21z" />
    <glyph glyph-name="uni0ED3" unicode="&#xed3;" horiz-adv-x="595" 
d="M91 -10q-34 0 -71 14l13 62q9 -3 18 -4.5t16 -1.5q17 0 28.5 9.5t11.5 32.5v330h88v-241q0 -46 16 -74t43.5 -41t60.5 -13q56 0 83 32.5t27 95.5v162q0 30 -11.5 53.5t-30.5 43.5t-44 37q-29 21 -60 39t-57 37t-42 41t-16 50q0 34 25 52t66 18q12 0 28.5 -2t33.5 -9
l182 -74v-69l-196 80q-13 5 -23.5 7t-16.5 2q-13 0 -18.5 -5t-5.5 -12q0 -13 20.5 -26.5t52.5 -29t66 -36.5q26 -15 50 -33.5t43 -41.5t30.5 -51t11.5 -63v-176q0 -69 -22.5 -112t-64.5 -63t-103 -20q-27 0 -63.5 9.5t-73.5 50.5h-37l34 25v-21q0 -32 -29.5 -48t-62.5 -16z
" />
    <glyph glyph-name="uni0ED4" unicode="&#xed4;" horiz-adv-x="610" 
d="M253 -10q-88 0 -136.5 47.5t-48.5 149.5v124q0 69 17.5 113.5t46.5 70t64.5 38.5t72 17t68.5 6q29 2 52 6.5t39 18.5t24.5 40.5t8.5 71.5v21h79v-20q0 -73 -19 -115t-48.5 -62t-63 -26t-62.5 -8q-43 -2 -78 -7t-60.5 -20.5t-39 -49.5t-13.5 -95v-122q0 -67 27.5 -96.5
t85.5 -29.5q31 0 57.5 9.5t43 35t16.5 71.5v102q0 59 31 82t71 23q18 0 36.5 -3.5t37.5 -10.5l-14 -62l-18 4t-17 2q-16 0 -27.5 -9.5t-11.5 -33.5v-103q0 -36 8 -61t20.5 -42t26.5 -30l-64 -47q-13 11 -28.5 33.5t-24.5 45.5h-3q-35 -47 -73 -63t-83 -16z" />
    <glyph glyph-name="uni0ED5" unicode="&#xed5;" horiz-adv-x="610" 
d="M253 -10q-88 0 -136.5 47.5t-48.5 149.5v124q0 48 9.5 85t26 63.5t37.5 43.5t44.5 25t46.5 8h49q12 0 19.5 3t13 7t11 7t12.5 3q36 0 60 6.5t38 22.5t20 42.5t6 65.5v21h79v-20q0 -73 -19 -115t-48.5 -62t-63 -26t-62.5 -8q-43 -2 -78 -7t-60.5 -20.5t-39 -49.5
t-13.5 -95v-122q0 -67 27.5 -96.5t85.5 -29.5q31 0 57.5 9.5t43 35t16.5 71.5v102q0 59 31 82t71 23q18 0 36.5 -3.5t37.5 -10.5l-14 -62l-18 4t-17 2q-16 0 -27.5 -9.5t-11.5 -33.5v-103q0 -36 8 -61t20.5 -42t26.5 -30l-64 -47q-13 11 -28.5 33.5t-24.5 45.5h-3
q-35 -47 -73 -63t-83 -16zM281 492q-49 0 -80 28.5t-31 79.5t31 79.5t80 28.5q48 0 78.5 -30.5t30.5 -77.5q0 -46 -30.5 -77t-78.5 -31zM279 552q21 0 34.5 13t13.5 34t-13.5 34t-34.5 13t-34.5 -12.5t-13.5 -34.5q0 -21 13 -34t35 -13z" />
    <glyph glyph-name="uni0ED6" unicode="&#xed6;" horiz-adv-x="633" 
d="M208 -10q-61 0 -95.5 40.5t-34.5 113.5v236q0 59 31 82t71 23q19 0 38 -4t36 -11l-13 -62q-9 3 -18.5 5t-17.5 2q-16 0 -27.5 -9.5t-11.5 -33.5v-229q0 -41 14 -60.5t42 -19.5q27 0 40.5 17t13.5 51v194h76v-194q0 -34 13.5 -51t41.5 -17q29 0 42.5 19t13.5 61v210
q0 31 -11.5 55t-31 43.5t-43.5 35.5q-29 20 -59.5 37.5t-57 36.5t-42.5 41t-16 51q0 35 24.5 53t64.5 18q16 0 32 -3t32 -9l182 -73v-69l-196 80q-10 4 -21.5 6.5t-19.5 2.5q-10 0 -16.5 -4.5t-6.5 -12.5q0 -13 20.5 -26.5t52.5 -29t66 -36.5q26 -15 50 -33.5t43 -41.5
t30.5 -51t11.5 -63v-217q0 -73 -34.5 -113.5t-95.5 -40.5q-48 0 -71.5 21t-33.5 46h-4q-9 -25 -32.5 -46t-71.5 -21z" />
    <glyph glyph-name="uni0ED7" unicode="&#xed7;" horiz-adv-x="614" 
d="M444 -174v521q0 44 -12 74.5t-37.5 47t-68.5 16.5q-23 0 -46 -6t-42.5 -20t-31 -39t-11.5 -63v-251q0 -55 -27 -85.5t-76 -30.5q-16 0 -35 3.5t-37 10.5l13 62q9 -3 18 -4.5t16 -1.5q17 0 28.5 9.5t11.5 32.5v264q0 55 -17 89t-38 54l64 49q14 -12 29 -35t24 -46h3
q23 31 50.5 48.5t58 25t62.5 7.5q61 0 103 -23t64 -68.5t22 -113.5v-527h-88z" />
    <glyph glyph-name="uni0ED8" unicode="&#xed8;" horiz-adv-x="637" 
d="M215 -191q-35 0 -57 21.5t-22 54.5q0 40 34 67.5t99 58.5l198 93v279q0 47 -13.5 74.5t-44.5 27.5q-29 0 -44 -23t-19 -55h-58q-4 35 -17 56.5t-43 21.5q-37 0 -58.5 -39.5t-21.5 -131.5q0 -66 10 -102.5t24 -53.5t28 -21t22 -4q12 0 21 2t18 5l13 -62q-17 -7 -36 -11
t-39 -4q-19 0 -44.5 7.5t-49.5 31.5t-39.5 73t-15.5 133q0 91 20 145.5t55 79.5t81 25q40 0 63 -17t36 -50h4q11 29 37.5 48t69.5 19q64 0 96.5 -45t32.5 -123v-294q0 -40 -17 -71t-42 -57q20 -10 31.5 -30t11.5 -43q0 -35 -25 -60.5t-61 -25.5q-31 0 -54 20t-28 49
q-37 -29 -79.5 -49t-76.5 -20zM222 -128q19 0 52 15.5t69.5 40.5t66.5 53.5t42 54.5l-192 -95q-31 -15 -44.5 -28t-13.5 -25q0 -16 20 -16zM453 -143q16 0 27 11t11 27q0 15 -11 25.5t-27 10.5q-15 0 -25.5 -10.5t-10.5 -25.5q0 -16 10.5 -27t25.5 -11z" />
    <glyph glyph-name="uni0ED9" unicode="&#xed9;" horiz-adv-x="749" 
d="M217 -10q-51 0 -85 29t-51 88.5t-17 149.5q0 77 12 134t36.5 94t62 55t88.5 18q53 0 89.5 -19.5t55.5 -59t19 -99.5v-215q0 -51 19 -76.5t57 -25.5q39 0 58.5 25.5t19.5 76.5v383h86v-379q0 -60 -18 -100t-54 -59.5t-91 -19.5q-54 0 -90.5 19.5t-54.5 59.5t-18 100v205
q0 56 -19.5 83.5t-58.5 27.5q-37 0 -62 -25t-37 -76t-12 -128q0 -67 9.5 -110.5t29.5 -64.5t50 -21q8 0 17 1.5t16 4.5l14 -62q-16 -7 -34 -10.5t-37 -3.5z" />
    <glyph glyph-name="uni0EDC" unicode="&#xedc;" horiz-adv-x="967" 
d="M241 -10q-80 0 -121.5 43t-41.5 125v390h88v-396q0 -43 19.5 -66t56.5 -23q76 0 76 89v273q0 27 -11 49.5t-34 38.5l62 45q15 -7 29 -21t22 -31h4q23 26 55 39t71 13q43 0 71.5 -16t43 -47.5t14.5 -78.5v-264q0 -29 9.5 -49t27.5 -30t42 -10q37 0 55 24.5t18 74.5v386h88
v-391q0 -55 -15.5 -92t-45.5 -56t-75 -19q-46 0 -79.5 19.5t-53.5 57.5h-3q-8 -25 -20 -44.5t-27 -32.5l-64 49q28 26 42.5 62.5t14.5 80.5v220q0 41 -19.5 62t-57.5 21q-25 0 -42.5 -9.5t-26.5 -27.5t-9 -46v-244q0 -82 -41.5 -125t-121.5 -43z" />
    <glyph glyph-name="uni0EDD" unicode="&#xedd;" horiz-adv-x="988" 
d="M241 -10q-80 0 -121.5 43t-41.5 125v390h88v-396q0 -43 19.5 -66t56.5 -23q76 0 76 89v273q0 27 -11 49.5t-34 38.5l62 45q15 -7 29 -21t22 -31h4q15 17 34.5 28.5t44 17.5t52.5 6q47 0 79.5 -16t49 -47.5t16.5 -78.5v-255q0 -48 21 -73t59 -25q37 0 54.5 23t17.5 67v395
h88v-387q0 -55 -15.5 -93.5t-46 -58t-75.5 -19.5q-43 0 -71.5 16.5t-45.5 46.5h-27l24 27v-18q0 -35 -25.5 -53.5t-66.5 -18.5q-45 0 -69.5 22t-31.5 64l64 16q5 -16 14 -24t22 -8q24 0 24 27v315q0 39 -23.5 61t-64.5 22q-27 0 -47 -10t-30.5 -28.5t-10.5 -44.5v-244
q0 -82 -41.5 -125t-121.5 -43z" />
    <glyph glyph-name="uni0EDE" unicode="&#xede;" horiz-adv-x="614" 
d="M92 -10q-16 0 -35 3.5t-37 10.5l13 62q9 -3 18 -4.5t16 -1.5q17 0 28.5 9.5t11.5 32.5v264q0 55 -17 89t-38 54l64 49q14 -12 29 -35t24 -46h3q23 31 50.5 48.5t58 25t62.5 7.5q61 0 103 -23t64 -68.5t22 -113.5v-353h-88v347q0 44 -12 74.5t-37.5 47t-68.5 16.5
q-23 0 -46 -6t-42.5 -20t-31 -39t-11.5 -63v-251q0 -55 -27 -85.5t-76 -30.5zM377 210q-57 0 -82 25.5t-25 57.5q0 15 4 32.5t11 28.5l68 -13q-2 -4 -3.5 -13.5t-1.5 -16.5q0 -14 8 -23.5t27 -9.5h225v-68h-231z" />
    <glyph glyph-name="uni0EDF" unicode="&#xedf;" horiz-adv-x="614" 
d="M302 -10q-116 0 -175 45.5t-59 127.5q0 43 14 70t35.5 41.5t44.5 17.5v4q-20 6 -42 20.5t-37 40t-15 63.5q0 35 16 66.5t51.5 51.5t92.5 20q28 0 53 -4.5t40 -11.5l-15 -68q-11 4 -28.5 7.5t-37.5 3.5q-41 0 -62.5 -19t-21.5 -54q0 -33 16 -51.5t37.5 -25.5t35.5 -7h19
v-65h-19q-37 0 -63 -23t-26 -71q0 -33 15 -57t47.5 -36.5t84.5 -12.5q49 0 80 12t46 37.5t15 66.5v369h88v-359q0 -70 -26 -113.5t-77.5 -64.5t-126.5 -21zM407 240q-57 0 -82 25.5t-25 57.5q0 15 4 32.5t11 28.5l68 -13q-2 -4 -3.5 -13.5t-1.5 -16.5q0 -14 8 -23.5t27 -9.5
h195v-68h-201z" />
    <glyph glyph-name="Wgrave" unicode="&#x1e80;" horiz-adv-x="930" 
d="M917 714l-190 -714h-91l-139 468q-6 21 -12 43t-11 42t-8.5 34.5t-4.5 21.5q-1 -7 -3.5 -21.5t-7.5 -34.5t-10.5 -42.5t-12.5 -45.5l-135 -465h-91l-189 714h94l111 -436q6 -23 11 -45.5t9.5 -44t7.5 -41.5t6 -39q3 20 6.5 41t8.5 43.5t11 45.5t12 45l126 431h93
l131 -434q7 -23 13 -46.5t11 -45.5t8.5 -42.5t6.5 -37.5q3 25 8 52.5t12 57.5t15 61l110 435h94zM440 944q11 -22 27.5 -49.5t35 -53.5t33.5 -45v-12h-59q-17 14 -38 33.5t-41.5 41t-37 41.5t-25.5 34v10h105z" />
    <glyph glyph-name="wgrave" unicode="&#x1e81;" horiz-adv-x="786" 
d="M431 303q-8 28 -15.5 54.5t-13 49.5t-8.5 38h-4q-2 -15 -7.5 -38t-12.5 -50t-16 -55l-96 -301h-100l-147 536h91l74 -286q8 -29 15 -58.5t12.5 -56t7.5 -45.5h4q3 12 7 30t8.5 38t10 40t10.5 36l95 302h96l92 -302q7 -23 14.5 -49t13.5 -50.5t8 -43.5h4q2 17 7.5 42.5
t13 56t15.5 60.5l75 286h90l-149 -536h-103zM368 766q11 -22 27.5 -49.5t35 -53.5t33.5 -45v-12h-59q-17 14 -38 33.5t-41.5 41t-37 41.5t-25.5 34v10h105z" />
    <glyph glyph-name="Wacute" unicode="&#x1e82;" horiz-adv-x="930" 
d="M917 714l-190 -714h-91l-139 468q-6 21 -12 43t-11 42t-8.5 34.5t-4.5 21.5q-1 -7 -3.5 -21.5t-7.5 -34.5t-10.5 -42.5t-12.5 -45.5l-135 -465h-91l-189 714h94l111 -436q6 -23 11 -45.5t9.5 -44t7.5 -41.5t6 -39q3 20 6.5 41t8.5 43.5t11 45.5t12 45l126 431h93
l131 -434q7 -23 13 -46.5t11 -45.5t8.5 -42.5t6.5 -37.5q3 25 8 52.5t12 57.5t15 61l110 435h94zM613 934q-9 -14 -26 -34t-37.5 -41.5t-41 -41t-38.5 -33.5h-58v12q15 19 32.5 45t34.5 53.5t28 49.5h106v-10z" />
    <glyph glyph-name="wacute" unicode="&#x1e83;" horiz-adv-x="786" 
d="M431 303q-8 28 -15.5 54.5t-13 49.5t-8.5 38h-4q-2 -15 -7.5 -38t-12.5 -50t-16 -55l-96 -301h-100l-147 536h91l74 -286q8 -29 15 -58.5t12.5 -56t7.5 -45.5h4q3 12 7 30t8.5 38t10 40t10.5 36l95 302h96l92 -302q7 -23 14.5 -49t13.5 -50.5t8 -43.5h4q2 17 7.5 42.5
t13 56t15.5 60.5l75 286h90l-149 -536h-103zM541 756q-9 -14 -26 -34t-37.5 -41.5t-41 -41t-38.5 -33.5h-58v12q15 19 32.5 45t34.5 53.5t28 49.5h106v-10z" />
    <glyph glyph-name="Wdieresis" unicode="&#x1e84;" horiz-adv-x="930" 
d="M917 714l-190 -714h-91l-139 468q-6 21 -12 43t-11 42t-8.5 34.5t-4.5 21.5q-1 -7 -3.5 -21.5t-7.5 -34.5t-10.5 -42.5t-12.5 -45.5l-135 -465h-91l-189 714h94l111 -436q6 -23 11 -45.5t9.5 -44t7.5 -41.5t6 -39q3 20 6.5 41t8.5 43.5t11 45.5t12 45l126 431h93
l131 -434q7 -23 13 -46.5t11 -45.5t8.5 -42.5t6.5 -37.5q3 25 8 52.5t12 57.5t15 61l110 435h94zM325 859q0 26 14 37.5t33 11.5t33 -11.5t14 -37.5q0 -25 -14 -37.5t-33 -12.5t-33 12.5t-14 37.5zM513 859q0 26 13.5 37.5t32.5 11.5t33 -11.5t14 -37.5q0 -25 -14 -37.5
t-33 -12.5t-32.5 12.5t-13.5 37.5z" />
    <glyph glyph-name="wdieresis" unicode="&#x1e85;" horiz-adv-x="786" 
d="M431 303q-8 28 -15.5 54.5t-13 49.5t-8.5 38h-4q-2 -15 -7.5 -38t-12.5 -50t-16 -55l-96 -301h-100l-147 536h91l74 -286q8 -29 15 -58.5t12.5 -56t7.5 -45.5h4q3 12 7 30t8.5 38t10 40t10.5 36l95 302h96l92 -302q7 -23 14.5 -49t13.5 -50.5t8 -43.5h4q2 17 7.5 42.5
t13 56t15.5 60.5l75 286h90l-149 -536h-103zM253 681q0 26 14 37.5t33 11.5t33 -11.5t14 -37.5q0 -25 -14 -37.5t-33 -12.5t-33 12.5t-14 37.5zM441 681q0 26 13.5 37.5t32.5 11.5t33 -11.5t14 -37.5q0 -25 -14 -37.5t-33 -12.5t-32.5 12.5t-13.5 37.5z" />
    <glyph glyph-name="uni1E9E" unicode="&#x1e9e;" horiz-adv-x="709" 
d="M360 724q66 0 113.5 -19.5t78.5 -56t47 -86.5l-142 -151q63 -2 112 -26.5t77 -69.5t28 -109q0 -63 -26 -111.5t-80.5 -76.5t-142.5 -28q-52 0 -98.5 8.5t-87.5 30.5v82q41 -22 89.5 -34.5t92.5 -12.5q85 0 122 37.5t37 105.5q0 64 -43 97.5t-129 33.5h-62v65l156 164
q-12 26 -32 43.5t-48 26.5t-67 9q-61 0 -100 -23.5t-57.5 -65t-18.5 -95.5v-462h-89v462q0 74 29 133.5t89 94t152 34.5z" />
    <glyph glyph-name="Ygrave" unicode="&#x1ef2;" horiz-adv-x="566" 
d="M283 363l186 351h97l-238 -437v-277h-90v273l-238 441h98zM258 944q11 -22 27.5 -49.5t35 -53.5t33.5 -45v-12h-59q-17 14 -38 33.5t-41.5 41t-37 41.5t-25.5 34v10h105z" />
    <glyph glyph-name="ygrave" unicode="&#x1ef3;" horiz-adv-x="510" 
d="M1 536h94l116 -305q10 -27 18.5 -52t15.5 -48.5t11 -45.5h4q6 25 19 65.5t27 81.5l109 304h95l-231 -610q-19 -50 -44.5 -87.5t-62 -58t-88.5 -20.5q-24 0 -42 2.5t-31 5.5v70q11 -2 26.5 -4t32.5 -2q31 0 53.5 11.5t38.5 33t27 50.5l28 71zM230 766q11 -22 27.5 -49.5
t35 -53.5t33.5 -45v-12h-59q-17 14 -38 33.5t-41.5 41t-37 41.5t-25.5 34v10h105z" />
    <glyph glyph-name="uni200B" unicode="&#x200b;" 
 />
    <glyph glyph-name="uni200C" unicode="&#x200c;" 
d="M-21 -133v761h42v-761h-42z" />
    <glyph glyph-name="uni200D" unicode="&#x200d;" 
d="M-21 -133v668l-62 -62l-26 27l82 82l-82 81l26 27l83 -83l83 83l26 -27l-82 -81l82 -82l-26 -27l-62 62v-668h-42z" />
    <glyph glyph-name="endash" unicode="&#x2013;" horiz-adv-x="500" 
d="M40 229v78h420v-78h-420z" />
    <glyph glyph-name="emdash" unicode="&#x2014;" horiz-adv-x="1000" 
d="M40 229v78h920v-78h-920z" />
    <glyph glyph-name="quoteleft" unicode="&#x2018;" horiz-adv-x="175" 
d="M12 480q9 35 23 76t30.5 82t32.5 76h65q-9 -38 -19 -81.5t-18 -86t-13 -77.5h-95z" />
    <glyph glyph-name="quoteright" unicode="&#x2019;" horiz-adv-x="175" 
d="M163 703q-9 -35 -23 -76t-30.5 -81.5t-32.5 -76.5h-65q7 28 14.5 60t14 64.5t12 63.5t9.5 57h94z" />
    <glyph glyph-name="quotesinglbase" unicode="&#x201a;" horiz-adv-x="250" 
d="M182 105q-9 -35 -23 -76t-30.5 -81.5t-32.5 -76.5h-65q7 28 14.5 60t14 64.5t12 63.5t9.5 57h94z" />
    <glyph glyph-name="quotedblleft" unicode="&#x201c;" horiz-adv-x="359" 
d="M347 714q-9 -38 -19 -82t-18 -86t-13 -77h-95l-7 11q9 35 23 75.5t31 81.5t33 77h65zM162 714q-9 -38 -19 -82t-18 -86t-13 -77h-94l-6 11q9 35 23 75.5t30.5 81.5t32.5 77h64z" />
    <glyph glyph-name="quotedblright" unicode="&#x201d;" horiz-adv-x="359" 
d="M347 703q-9 -35 -23 -76t-30.5 -81.5t-32.5 -76.5h-66q10 38 19.5 81.5t18 86t13.5 77.5h94zM162 703q-9 -35 -23 -76t-30.5 -81.5t-32.5 -76.5h-64q7 28 14 60t13.5 64.5t12 63.5t9.5 57h94z" />
    <glyph glyph-name="quotedblbase" unicode="&#x201e;" horiz-adv-x="416" 
d="M366 105q-9 -35 -23 -76t-30.5 -81.5t-32.5 -76.5h-66q10 38 19.5 81.5t18 86t13.5 77.5h94zM181 105q-9 -35 -23 -76t-30.5 -81.5t-32.5 -76.5h-64q7 28 14 60t13.5 64.5t12 63.5t9.5 57h94z" />
    <glyph glyph-name="bullet" unicode="&#x2022;" horiz-adv-x="376" 
d="M77 365q0 45 14.5 72.5t40 39.5t56.5 12t56 -12t40 -39.5t15 -72.5q0 -44 -15 -71.5t-40 -40t-56 -12.5t-56.5 12.5t-40 40t-14.5 71.5z" />
    <glyph glyph-name="ellipsis" unicode="&#x2026;" horiz-adv-x="791" 
d="M72 54q0 37 18 52t43 15q26 0 44.5 -15t18.5 -52q0 -36 -18.5 -52t-44.5 -16q-25 0 -43 16t-18 52zM334 54q0 37 18 52t43 15q26 0 44.5 -15t18.5 -52q0 -36 -18.5 -52t-44.5 -16q-25 0 -43 16t-18 52zM595 54q0 37 18 52t43 15q26 0 44.5 -15t18.5 -52q0 -36 -18.5 -52
t-44.5 -16q-25 0 -43 16t-18 52z" />
    <glyph glyph-name="guilsinglleft" unicode="&#x2039;" horiz-adv-x="310" 
d="M40 270l168 201l63 -36l-140 -171l140 -171l-63 -37l-168 201v13z" />
    <glyph glyph-name="guilsinglright" unicode="&#x203a;" horiz-adv-x="310" 
d="M101 471l169 -201v-13l-169 -201l-62 37l140 171l-140 171z" />
    <glyph glyph-name="Euro" unicode="&#x20ac;" horiz-adv-x="572" 
d="M380 723q50 0 94 -11t85 -35l-37 -72q-28 15 -65.5 28t-76.5 13q-37 0 -68 -11.5t-54.5 -35.5t-40.5 -60t-26 -84h244v-65h-251q-1 -10 -1 -19v-19v-19.5t1 -21.5h221v-65h-213q12 -56 37 -96t65 -61t94 -21q39 0 78.5 9.5t70.5 22.5v-78q-31 -13 -68.5 -22.5t-85.5 -9.5
q-81 0 -138 31t-92 88.5t-50 136.5h-80v65h72q-1 12 -1 20v21q0 11 0.5 21.5t0.5 16.5h-72v65h79q13 82 48 142t93 93t137 33z" />
    <glyph glyph-name="uni20AD" unicode="&#x20ad;" horiz-adv-x="584" 
d="M97 0v714h91v-314h31l245 314h104l-270 -333l281 -381h-107l-239 334h-45v-334h-91zM10 334v66h510v-66h-510z" />
    <glyph glyph-name="trademark" unicode="&#x2122;" horiz-adv-x="773" 
d="M325 362v352h94l94 -271l97 271h91v-352h-64v204q0 8 1 31.5t2 35.5h-4l-101 -271h-53l-96 271h-4q1 -16 2 -36t1 -26v-209h-60zM118 362v298h-101v54h266v-54h-102v-298h-63z" />
    <glyph glyph-name="minus" unicode="&#x2212;" horiz-adv-x="322" 
d="M40 229v78h242v-78h-242z" />
    <glyph glyph-name="uni25CC" unicode="&#x25cc;" horiz-adv-x="594" 
d="M502 349q-11 0 -18.5 7.5t-7.5 19.5q0 11 7.5 18.5t19.5 7.5q11 0 18.5 -7.5t7.5 -18.5q0 -12 -7.5 -19.5t-19.5 -7.5zM140 107q-11 0 -18.5 7.5t-7.5 18.5q0 12 7.5 19.5t18.5 7.5q12 0 19.5 -7.5t7.5 -19.5q0 -11 -7.5 -18.5t-19.5 -7.5zM92 180q-12 0 -19.5 7.5
t-7.5 18.5q0 12 7.5 19.5t19.5 7.5q11 0 18.5 -7.5t7.5 -19.5q0 -11 -7.5 -18.5t-18.5 -7.5zM212 60q-11 0 -18.5 7t-7.5 18q0 12 7.5 19.5t18.5 7.5q27 0 27 -25q0 -12 -7.5 -19.5t-19.5 -7.5zM75 265q-12 0 -19.5 7.5t-7.5 18.5t7.5 18.5t19.5 7.5q11 0 18.5 -7.5
t7.5 -18.5t-7.5 -18.5t-18.5 -7.5zM297 42q-11 0 -18.5 7.5t-7.5 19.5q0 11 7.5 18.5t18.5 7.5t18.5 -7.5t7.5 -18.5q0 -12 -7.5 -19.5t-18.5 -7.5zM93 349q-12 0 -20 7.5t-8 19.5q0 11 7.5 18.5t19.5 7.5q11 0 18.5 -7.5t7.5 -18.5q0 -27 -25 -27zM383 60q-12 0 -20 7
t-8 18q0 12 8 19.5t20 7.5q25 0 25 -27q0 -25 -25 -25zM455 107q-12 0 -19.5 7.5t-7.5 18.5q0 12 7.5 19.5t19.5 7.5q25 0 25 -27q0 -11 -7 -18.5t-18 -7.5zM140 422q-11 0 -18.5 7t-7.5 18q0 12 7.5 20t18.5 8q12 0 19.5 -7.5t7.5 -19.5q0 -11 -7.5 -18.5t-19.5 -7.5z
M212 470q-11 0 -18.5 7.5t-7.5 18.5q0 12 7.5 19.5t18.5 7.5q12 0 19.5 -7.5t7.5 -19.5q0 -11 -7.5 -18.5t-19.5 -7.5zM502 180q-11 0 -18.5 7.5t-7.5 18.5q0 12 7.5 19.5t18.5 7.5q12 0 19.5 -7.5t7.5 -19.5q0 -11 -7.5 -18.5t-19.5 -7.5zM297 487q-11 0 -18.5 7.5
t-7.5 19.5q0 11 7.5 18.5t18.5 7.5t18.5 -7.5t7.5 -18.5q0 -12 -7.5 -19.5t-18.5 -7.5zM521 265q-12 0 -19.5 7.5t-7.5 18.5t7.5 18.5t19.5 7.5q11 0 18 -7.5t7 -18.5t-7 -18.5t-18 -7.5zM383 470q-12 0 -20 7.5t-8 18.5q0 12 8 19.5t20 7.5q25 0 25 -27q0 -11 -7 -18.5
t-18 -7.5zM455 422q-12 0 -19.5 7.5t-7.5 18.5q0 12 7.5 19.5t19.5 7.5q25 0 25 -27q0 -11 -7 -18.5t-18 -7.5z" />
    <glyph glyph-name="uni0EAC.ss01" horiz-adv-x="616" 
d="M222 -10q-162 0 -162 183t247 183t247 -198v-158h-88v158q0 65 -38 95t-121 30t-121 -26t-38 -84t21 -84t67 -26q18 0 34.5 3.5t27.5 7.5l15 -69q-14 -6 -39.5 -10.5t-51.5 -4.5zM307 283q-67 0 -121 21t-85 57t-31 81q0 56 36 86t102 30q39 0 70 -10.5t56.5 -24t48 -24
t43.5 -10.5q17 0 24 9t7 26v24h87v-25q0 -40 -14.5 -63.5t-38 -33.5t-49.5 -10q-32 0 -62 10.5t-58 24t-55.5 24t-55.5 10.5t-42 -13t-14 -39q0 -27 19.5 -48.5t54 -34t78.5 -12.5v-55z" />
    <glyph glyph-name="uni0EBC.narrow" 
d="M65 -210q-7 10 -11 23.5t-4 27.5q0 29 20.5 54t74.5 25q34 0 59.5 -9t48.5 -18t49 -9q14 0 31 4.5t36 17.5v-66q-20 -13 -37.5 -18.5t-33.5 -5.5q-26 0 -48.5 9t-44 18t-45.5 9q-16 0 -22.5 -6t-6.5 -17q0 -8 3 -19.5t7 -19.5h-76z" />
    <glyph glyph-name="uni0EBC.small" 
d="M65 -367q-7 11 -11 24t-4 27q0 39 26 59t74 20q37 0 66 -9t55 -18t55 -9q21 0 42.5 6t40.5 18v-68q-39 -24 -85 -24q-31 0 -58 9t-52 18t-49 9q-30 0 -30 -26q0 -8 2.5 -18t7.5 -18h-80z" />
    <glyph glyph-name="uni0EB1.narrow" 
d="M155 637q-54 0 -79.5 20t-25.5 62q0 19 4.5 35.5t11.5 27.5h76q-4 -10 -7 -19.5t-3 -18.5q0 -16 11 -27t35 -11h220v-69h-243z" />
    <glyph glyph-name="uni0EB1.center" 
d="M155 637q-54 0 -79.5 20t-25.5 62q0 19 4.5 35.5t11.5 27.5h76q-4 -10 -7 -19.5t-3 -18.5q0 -16 11 -27t35 -11h285v-69h-308z" />
    <glyph glyph-name="uni0EBB.narrow" 
d="M66 637q-7 11 -11.5 27t-4.5 33q0 32 22 57t83 25h243v-69h-220q-21 0 -32.5 -7.5t-11.5 -25.5q0 -7 2 -19.5t6 -20.5h-76z" />
    <glyph glyph-name="uni0EBB.center" 
d="M66 637q-7 11 -11.5 27.5t-4.5 35.5q0 42 25.5 62t79.5 20h308v-69h-285q-24 0 -35 -10.5t-11 -27.5q0 -9 3 -18.5t7 -19.5h-76z" />
    <glyph glyph-name="uni0EB4.narrow" 
d="M189 627q-41 0 -72.5 13t-49 36.5t-17.5 55.5q0 38 24.5 66.5t69 44.5t103.5 16q60 0 104 -16t68.5 -44.5t24.5 -66.5q0 -32 -17.5 -55.5t-49 -36.5t-72.5 -13l-11 48q21 2 37 10t24.5 20t8.5 27q0 29 -32 47t-85 18t-85.5 -17.5t-32.5 -46.5q0 -14 9 -26.5t25.5 -20.5
t38.5 -11z" />
    <glyph glyph-name="uni0EB5.narrow" 
d="M189 627q-41 0 -72.5 13t-49 36.5t-17.5 55.5q0 38 24.5 66.5t69 44.5t104.5 16q59 0 103 -15t68.5 -41.5t24.5 -59.5q0 -18 -8 -33.5t-26 -24.5v-2q7 2 20 3.5t27 1.5h34v-61h-182l-13 51q21 4 36 11.5t23.5 18.5t8.5 25q0 29 -32 46.5t-85 17.5t-85.5 -17.5
t-32.5 -46.5q0 -14 9 -26.5t25.5 -20.5t38.5 -11z" />
    <glyph glyph-name="uni0EB6.narrow" 
d="M189 627q-41 0 -72.5 13t-49 36.5t-17.5 55.5q0 38 24.5 66.5t69 44.5t103.5 16q60 0 104 -16t68.5 -44.5t24.5 -66.5q0 -32 -17.5 -55.5t-49 -36.5t-72.5 -13l-11 48q21 2 37 10t24.5 20t8.5 27q0 29 -32 47t-85 18t-85.5 -17.5t-32.5 -46.5q0 -14 9 -26.5t25.5 -20.5
t38.5 -11zM247 686q-17 0 -29.5 12.5t-12.5 29.5t12.5 30t29.5 13t29.5 -13t12.5 -30t-12.5 -29.5t-29.5 -12.5z" />
    <glyph glyph-name="uni0EB7.narrow" 
d="M189 627q-41 0 -72.5 13t-49 36.5t-17.5 55.5q0 38 24.5 66.5t69 44.5t104.5 16q59 0 103 -15t68.5 -41.5t24.5 -59.5q0 -18 -8 -33.5t-26 -24.5v-2q7 2 20 3.5t27 1.5h34v-61h-182l-13 51q21 4 36 11.5t23.5 18.5t8.5 25q0 29 -32 46.5t-85 17.5t-85.5 -17.5
t-32.5 -46.5q0 -14 9 -26.5t25.5 -20.5t38.5 -11zM247 686q-17 0 -29.5 12.5t-12.5 29.5t12.5 30t29.5 13t29.5 -13t12.5 -30t-12.5 -29.5t-29.5 -12.5z" />
    <glyph glyph-name="uni0EB8.narrow" 
d="M121 -277v102q0 18 -7 25t-20 7q-8 0 -16 -2t-14 -4l-14 56q11 5 30.5 9t37.5 4q32 0 54 -18.5t22 -72.5v-106h-73z" />
    <glyph glyph-name="uni0EB8.small" 
d="M121 -434v102q0 18 -7 25t-20 7q-8 0 -16 -2t-14 -4l-14 56q8 4 19 6.5t24 4.5t25 2q32 0 54 -18.5t22 -72.5v-106h-73z" />
    <glyph glyph-name="uni0EB9.narrow" 
d="M214 -281q-63 0 -94.5 25.5t-31.5 72.5v17q0 12 -3.5 17t-13.5 5q-4 0 -7.5 -0.5t-7.5 -1.5l-6 60q13 3 26 4.5t23 1.5q35 0 50.5 -16t15.5 -45v-34q0 -19 10.5 -32t39.5 -13t38.5 13t9.5 32v92h78v-94q0 -49 -30.5 -76.5t-96.5 -27.5z" />
    <glyph glyph-name="uni0EB9.small" 
d="M214 -438q-63 0 -94.5 25.5t-31.5 72.5v17q0 22 -17 22q-4 0 -7.5 -0.5t-7.5 -1.5l-6 60q13 3 26 4.5t23 1.5q35 0 50.5 -16t15.5 -45v-34q0 -19 10.5 -32t39.5 -13t38.5 13t9.5 32v92h78v-94q0 -49 -30.5 -76.5t-96.5 -27.5z" />
    <glyph glyph-name="uni0ECD.right" 
d="M156 621q-48 0 -77 27.5t-29 72.5t29 72.5t77 27.5q49 0 78.5 -27.5t29.5 -72.5t-29.5 -72.5t-78.5 -27.5zM156 675q22 0 35 13t13 34q0 20 -13 32.5t-34 12.5q-22 0 -35 -12.5t-13 -33.5t13 -33.5t34 -12.5z" />
    <glyph glyph-name="uni0EC8.narrow" 
d="M50 637v174h88v-174h-88z" />
    <glyph glyph-name="uni0EC8.small" 
d="M50 929v156h77v-156h-77z" />
    <glyph glyph-name="uni0EC9.narrow" 
d="M59 637v41q27 4 46 13t29 23.5t10 31.5q0 18 -10.5 28t-29.5 10q-10 0 -19 -2.5t-17 -7.5l-18 46q14 10 35 15t43 5q44 0 67 -20t23 -55q0 -19 -7 -35.5t-19 -25.5h139v-67h-272z" />
    <glyph glyph-name="uni0EC9.small" 
d="M59 929v41q33 5 56.5 19.5t23.5 35.5q0 14 -10 20t-24 6q-20 0 -37 -10l-18 46q14 9 35.5 14.5t43.5 5.5q40 0 62 -17.5t22 -46.5q0 -17 -7 -30t-18 -21h177v-63h-306z" />
    <glyph glyph-name="uni0ECA.narrow" 
d="M139 634q-42 0 -65.5 24.5t-23.5 67.5q0 44 25.5 69t71.5 25l54 -37l49 37q48 0 75 -19t27 -53q0 -13 -4 -26.5t-12 -24.5h100v-60h-192v38q17 2 26.5 15.5t9.5 32.5q0 18 -8.5 28.5t-22.5 12.5l-42 -28h-13l-43 28q-13 -1 -22.5 -10.5t-9.5 -29.5q0 -19 9.5 -31
t25.5 -12q4 0 8 1l8 2l7 -42q-6 -4 -16 -6t-22 -2z" />
    <glyph glyph-name="uni0ECA.small" 
d="M131 925q-40 0 -60.5 25t-20.5 59q0 35 23 61t68 26l56 -34l51 34q34 0 62.5 -17t28.5 -52q0 -12 -3.5 -23.5t-8.5 -18.5h74v-56h-159v39q16 2 26.5 13t10.5 27q0 14 -8.5 24.5t-23.5 12.5l-48 -28h-5l-50 28q-16 -1 -24.5 -11.5t-8.5 -24.5t8 -24.5t25 -10.5q5 0 10.5 1
t9.5 2l8 -43q-7 -4 -17.5 -6.5t-23.5 -2.5z" />
    <glyph glyph-name="uni0ECB.narrow" 
d="M137 637v70h-87v61h87v70h84v-70h87v-61h-87v-70h-84z" />
    <glyph glyph-name="uni0ECB.small" 
d="M118 929v56h-68v61h68v56h75v-56h68v-61h-68v-56h-75z" />
    <glyph glyph-name="uni0ECC.narrow" 
d="M70 627q-10 13 -15 32.5t-5 38.5q0 47 27 71.5t76 24.5h122v-69h-93q-21 0 -33 -12t-12 -33q0 -11 3.5 -22t9.5 -20z" />
    <glyph glyph-name="uni0ECC.small" 
d="M67 918q-7 11 -12 28.5t-5 34.5q0 21 9 39.5t32 30.5t64 12h138v-69h-115q-19 0 -31.5 -7.5t-12.5 -24.5q0 -8 3 -16t7 -16z" />
    <glyph glyph-name="niggahita_maiEklao" 
d="M156 621q-48 0 -77 27.5t-29 72.5t29 72.5t77 27.5q49 0 78.5 -27.5t29.5 -72.5t-29.5 -72.5t-78.5 -27.5zM156 675q22 0 35 13t13 34q0 20 -13 32.5t-34 12.5q-22 0 -35 -12.5t-13 -33.5t13 -33.5t34 -12.5zM117 893v156h77v-156h-77z" />
    <glyph glyph-name="niggahita_maiTholao" 
d="M193 621q-48 0 -77 27.5t-29 72.5t29 72.5t77 27.5q49 0 78.5 -27.5t29.5 -72.5t-29.5 -72.5t-78.5 -27.5zM193 675q22 0 35 13t13 34q0 20 -13 32.5t-34 12.5q-22 0 -35 -12.5t-13 -33.5t13 -33.5t34 -12.5zM59 893v41q33 5 56.5 19.5t23.5 35.5q0 14 -10 20t-24 6
q-20 0 -37 -10l-18 46q14 9 35.5 14.5t43.5 5.5q40 0 62 -17.5t22 -46.5q0 -17 -7 -30t-18 -21h177v-63h-306z" />
    <glyph glyph-name="niggahita_maiTilao" 
d="M210 621q-48 0 -77 27.5t-29 72.5t29 72.5t77 27.5q49 0 78.5 -27.5t29.5 -72.5t-29.5 -72.5t-78.5 -27.5zM210 675q22 0 35 13t13 34q0 20 -13 32.5t-34 12.5q-22 0 -35 -12.5t-13 -33.5t13 -33.5t34 -12.5zM131 889q-40 0 -60.5 25t-20.5 59q0 35 23 61t68 26l56 -34
l51 34q34 0 62.5 -17t28.5 -52q0 -12 -3.5 -23.5t-8.5 -18.5h74v-56h-159v39q16 2 26.5 13t10.5 27q0 14 -8.5 24.5t-23.5 12.5l-48 -28h-5l-50 28q-16 -1 -24.5 -11.5t-8.5 -24.5t8 -24.5t25 -10.5q5 0 10.5 1t9.5 2l8 -43q-7 -4 -17.5 -6.5t-23.5 -2.5z" />
    <glyph glyph-name="niggahita_maiCatawalao" 
d="M156 621q-48 0 -77 27.5t-29 72.5t29 72.5t77 27.5q49 0 78.5 -27.5t29.5 -72.5t-29.5 -72.5t-78.5 -27.5zM156 675q22 0 35 13t13 34q0 20 -13 32.5t-34 12.5q-22 0 -35 -12.5t-13 -33.5t13 -33.5t34 -12.5zM119 893v56h-68v61h68v56h75v-56h68v-61h-68v-56h-75z" />
    <glyph glyph-name="niggahita_maiEklao.right" 
d="M156 621q-48 0 -77 27.5t-29 72.5t29 72.5t77 27.5q49 0 78.5 -27.5t29.5 -72.5t-29.5 -72.5t-78.5 -27.5zM156 675q22 0 35 13t13 34q0 20 -13 32.5t-34 12.5q-22 0 -35 -12.5t-13 -33.5t13 -33.5t34 -12.5zM117 893v156h77v-156h-77z" />
    <glyph glyph-name="niggahita_maiTholao.right" 
d="M193 621q-48 0 -77 27.5t-29 72.5t29 72.5t77 27.5q49 0 78.5 -27.5t29.5 -72.5t-29.5 -72.5t-78.5 -27.5zM193 675q22 0 35 13t13 34q0 20 -13 32.5t-34 12.5q-22 0 -35 -12.5t-13 -33.5t13 -33.5t34 -12.5zM59 893v41q33 5 56.5 19.5t23.5 35.5q0 14 -10 20t-24 6
q-20 0 -37 -10l-18 46q14 9 35.5 14.5t43.5 5.5q40 0 62 -17.5t22 -46.5q0 -17 -7 -30t-18 -21h177v-63h-306z" />
    <glyph glyph-name="niggahita_maiTilao.right" 
d="M210 621q-48 0 -77 27.5t-29 72.5t29 72.5t77 27.5q49 0 78.5 -27.5t29.5 -72.5t-29.5 -72.5t-78.5 -27.5zM210 675q22 0 35 13t13 34q0 20 -13 32.5t-34 12.5q-22 0 -35 -12.5t-13 -33.5t13 -33.5t34 -12.5zM131 889q-40 0 -60.5 25t-20.5 59q0 35 23 61t68 26l56 -34
l51 34q34 0 62.5 -17t28.5 -52q0 -12 -3.5 -23.5t-8.5 -18.5h74v-56h-159v39q16 2 26.5 13t10.5 27q0 14 -8.5 24.5t-23.5 12.5l-48 -28h-5l-50 28q-16 -1 -24.5 -11.5t-8.5 -24.5t8 -24.5t25 -10.5q5 0 10.5 1t9.5 2l8 -43q-7 -4 -17.5 -6.5t-23.5 -2.5z" />
    <glyph glyph-name="niggahita_maiCatawalao.right" 
d="M156 621q-48 0 -77 27.5t-29 72.5t29 72.5t77 27.5q49 0 78.5 -27.5t29.5 -72.5t-29.5 -72.5t-78.5 -27.5zM156 675q22 0 35 13t13 34q0 20 -13 32.5t-34 12.5q-22 0 -35 -12.5t-13 -33.5t13 -33.5t34 -12.5zM119 893v56h-68v61h68v56h75v-56h68v-61h-68v-56h-75z" />
    <glyph glyph-name="niggahita_maiEklao.narrow" 
d="M156 621q-48 0 -77 27.5t-29 72.5t29 72.5t77 27.5q49 0 78.5 -27.5t29.5 -72.5t-29.5 -72.5t-78.5 -27.5zM156 675q22 0 35 13t13 34q0 20 -13 32.5t-34 12.5q-22 0 -35 -12.5t-13 -33.5t13 -33.5t34 -12.5zM117 893v156h77v-156h-77z" />
    <glyph glyph-name="niggahita_maiTholao.narrow" 
d="M193 621q-48 0 -77 27.5t-29 72.5t29 72.5t77 27.5q49 0 78.5 -27.5t29.5 -72.5t-29.5 -72.5t-78.5 -27.5zM193 675q22 0 35 13t13 34q0 20 -13 32.5t-34 12.5q-22 0 -35 -12.5t-13 -33.5t13 -33.5t34 -12.5zM59 893v41q33 5 56.5 19.5t23.5 35.5q0 14 -10 20t-24 6
q-20 0 -37 -10l-18 46q14 9 35.5 14.5t43.5 5.5q40 0 62 -17.5t22 -46.5q0 -17 -7 -30t-18 -21h177v-63h-306z" />
    <glyph glyph-name="niggahita_maiTilao.narrow" 
d="M210 621q-48 0 -77 27.5t-29 72.5t29 72.5t77 27.5q49 0 78.5 -27.5t29.5 -72.5t-29.5 -72.5t-78.5 -27.5zM210 675q22 0 35 13t13 34q0 20 -13 32.5t-34 12.5q-22 0 -35 -12.5t-13 -33.5t13 -33.5t34 -12.5zM131 889q-40 0 -60.5 25t-20.5 59q0 35 23 61t68 26l56 -34
l51 34q34 0 62.5 -17t28.5 -52q0 -12 -3.5 -23.5t-8.5 -18.5h74v-56h-159v39q16 2 26.5 13t10.5 27q0 14 -8.5 24.5t-23.5 12.5l-48 -28h-5l-50 28q-16 -1 -24.5 -11.5t-8.5 -24.5t8 -24.5t25 -10.5q5 0 10.5 1t9.5 2l8 -43q-7 -4 -17.5 -6.5t-23.5 -2.5z" />
    <glyph glyph-name="niggahita_maiCatawalao.narrow" 
d="M156 621q-48 0 -77 27.5t-29 72.5t29 72.5t77 27.5q49 0 78.5 -27.5t29.5 -72.5t-29.5 -72.5t-78.5 -27.5zM156 675q22 0 35 13t13 34q0 20 -13 32.5t-34 12.5q-22 0 -35 -12.5t-13 -33.5t13 -33.5t34 -12.5zM119 893v56h-68v61h68v56h75v-56h68v-61h-68v-56h-75z" />
    <glyph glyph-name="uni0ECE.centre" 
d="M50 628v14l107 118h44l72 -75h-18l72 75h44l107 -118v-14h-70l-70 75l28 10l-75 -75h-54l-75 75l28 -10l-70 -75h-70z" />
    <glyph glyph-name="uni0ECE.narrow" 
d="M50 628v14l89 118h44l60 -75h-18l60 75h44l89 -118v-14h-70l-58 75l31 10l-63 -75h-48l-63 75l31 -10l-58 -75h-70z" />
    <glyph glyph-name="caroncommaaccent" horiz-adv-x="500" 
d="M310 751q-4 -18 -15.5 -45t-26.5 -55.5t-30 -50.5h-48v12q5 14 10 33t9.5 39.5t8 40t5.5 35.5h87v-9z" />
    <glyph glyph-name="commaaccentrotate" horiz-adv-x="500" 
d="M314 754q-8 -17 -16.5 -43.5t-15.5 -54.5t-10 -50h-87v9q5 18 17 45t28.5 55.5t34.5 50.5h49v-12z" />
    </font>
</defs>
</svg>
